<?xml version="1.0" standalone="no"?>
<!DOCTYPE svg PUBLIC "-//W3C//DTD SVG 1.1//EN" "http://www.w3.org/Graphics/SVG/1.1/DTD/svg11.dtd" >
<svg xmlns="http://www.w3.org/2000/svg" xmlns:xlink="http://www.w3.org/1999/xlink" version="1.1">
<metadata>
Created by FontForge 20201107 at Tue Apr 29 12:09:46 2025
 By 
Copyright (c) 2016 Swiss Typefaces Sarl. All rights reserved. |DCNT
</metadata>
<defs>
<font id="SuisseIntl-Bold" horiz-adv-x="0" >
  <font-face 
    font-family="Suisse Intl"
    font-weight="700"
    font-stretch="normal"
    units-per-em="2048"
    panose-1="2 11 5 4 0 0 0 0 0 0"
    ascent="1536"
    descent="-512"
    x-height="1102"
    cap-height="1485"
    bbox="-477 -1432 5761 2363"
    underline-thickness="143"
    underline-position="-224"
    unicode-range="U+0020-FEFC"
  />
<missing-glyph horiz-adv-x="1024" 
d="M0 0v1485h1024v-1485h-1024zM489 741l-450 684v-1366zM532 741l453 -682v1366zM512 709l-444 -670h886zM68 1446l444 -672l442 672h-886z" />
    <glyph glyph-name="uniFC43" unicode="&#xfedf;&#xfef0;" horiz-adv-x="1824" arabic-form="isolated" 
d="M1368 1485h305v-1065q0 -199 -121 -311q-68 -62 -172 -89q-47 -102 -106 -180q-106 -145 -261.5 -212.5t-371.5 -67.5q-278 0 -435 146.5t-157 414.5q0 114 21 215t67 248h279q-86 -230 -86 -387q0 -162 86 -239t268 -77q175 0 303 64q55 27 98 61l-45 6q-95 19 -184 47
l16 312q174 -49 324 -49q95 0 133.5 42.5t38.5 141.5v979z" />
    <glyph glyph-name="uniFC86" unicode="&#xfee0;&#xfef0;" horiz-adv-x="1859" arabic-form="final" 
d="M1378 1485h305l3 -979q0 -99 38.5 -141.5t133.5 -42.5q20 0 20 -21l2 -278q0 -23 -20 -23q-240 0 -361 109l-16 16l-21 -16q-51 -44 -67 -54q-55 -130 -121 -215q-106 -145 -261.5 -212.5t-371.5 -67.5q-278 0 -435 146.5t-157 414.5q0 114 21 215t67 248h279
q-86 -230 -86 -387q0 -162 86 -239t268 -77q175 0 303 64q55 27 98 61l-45 6q-95 19 -184 47l16 312q174 -49 324 -49q66 0 127 22q18 6 59 29q-2 14 -2 47z" />
    <glyph glyph-name="uniFEF5" unicode="&#xfedf;&#xfe82;" horiz-adv-x="1245" arabic-form="isolated" 
d="M723 1587h305v-413q0 -171 -61 -308q-8 -19 -54 -102l115 -105q166 -153 166 -311q0 -73 -24 -135t-70.5 -110t-122.5 -75.5t-174 -27.5h-645l-140 322q197 99 327 185.5t212 180.5q4 4 9 10t11 13.5t9 11.5l-545 485l8 21h359l292 -268q23 103 23 213v413zM586 424
q-66 -47 -164 -102h371q90 0 90 73q0 65 -121 174q-88 -85 -176 -145zM147 1595q45 0 133.5 -37.5t133.5 -37.5q35 0 83 14.5t81 38.5l-3 -191q-67 -51 -157 -51q-49 0 -128.5 38t-117.5 38q-43 0 -70.5 -21t-33.5 -59h-146q0 127 60.5 197.5t164.5 70.5z" />
    <glyph glyph-name="uniFEF6" unicode="&#xfee0;&#xfe82;" horiz-adv-x="1394" arabic-form="final" 
d="M911 1485h306l2 -979q0 -99 38.5 -141.5t133.5 -42.5q20 0 20 -21l2 -278q0 -23 -20 -23q-240 0 -361 109l-2 2l-69 -29q-105 -36 -226.5 -59t-212.5 -23q-282 0 -493 70v311q120 -35 247 -47q98 -8 134 -10q-2 34 -15 131q-5 34 -13.5 78t-24 116t-31.5 140t-46 198
t-55 242h310q135 -613 153 -754q7 -53 4 -113q0 -22 -2 -32q31 2 84 10l125 18l16 4q-2 18 -2 58zM287 1602q45 0 133 -38t133 -38q35 0 83 14.5t81 38.5l-2 -190q-69 -52 -158 -52q-49 0 -128.5 38t-117.5 38q-43 0 -70.5 -21t-33.5 -59h-146q0 127 61 198t165 71z" />
    <glyph glyph-name="uniFEF7" unicode="&#xfedf;&#xfe84;" horiz-adv-x="1245" arabic-form="isolated" 
d="M723 1587h305v-413q0 -171 -61 -308q-8 -19 -54 -102l115 -105q166 -153 166 -311q0 -73 -24 -135t-70.5 -110t-122.5 -75.5t-174 -27.5h-645l-140 322q197 99 327 185.5t212 180.5q4 4 9 10t11 13.5t9 11.5l-545 485l8 21h359l292 -268q23 103 23 213v413zM586 424
q-66 -47 -164 -102h371q90 0 90 73q0 65 -121 174q-88 -85 -176 -145zM311 1509h191l-41 -166h-342q-79 0 -154 -24v162q57 19 82 22q20 4 35 4q-45 42 -45 109q0 80 58.5 134t144.5 54q107 0 184 -41v-157q-77 30 -133 30q-36 0 -60 -17t-24 -46q0 -31 30 -47.5t74 -16.5z
" />
    <glyph glyph-name="uniFEF8" unicode="&#xfee0;&#xfe84;" horiz-adv-x="1394" arabic-form="final" 
d="M911 1485h306l2 -979q0 -99 38.5 -141.5t133.5 -42.5q20 0 20 -21l2 -278q0 -23 -20 -23q-240 0 -361 109l-2 2l-69 -29q-105 -36 -226.5 -59t-212.5 -23q-282 0 -493 70v311q120 -35 247 -47q98 -8 134 -10q-2 34 -15 131q-5 34 -13.5 78t-24 116t-31.5 140t-46 198
t-55 242h310q135 -613 153 -754q7 -53 4 -113q0 -22 -2 -32q31 2 84 10l125 18l16 4q-2 18 -2 58zM428 1513h203l-41 -165h-342q-76 0 -154 -25v162q57 19 80 22q20 4 37 4q-45 42 -45 109q0 80 58.5 134t144.5 54q107 0 184 -41v-157q-77 30 -133 30q-36 0 -60 -17t-24 -46
q0 -33 31 -49q27 -12 61 -15z" />
    <glyph glyph-name="uniFEF9" unicode="&#xfedf;&#xfe88;" horiz-adv-x="1245" arabic-form="isolated" 
d="M723 1587h305v-413q0 -171 -61 -308q-8 -19 -54 -102l115 -105q166 -153 166 -311q0 -73 -24 -135t-70.5 -110t-122.5 -75.5t-174 -27.5h-645l-140 322q197 99 327 185.5t212 180.5q4 4 9 10t11 13.5t9 11.5l-545 485l8 21h359l292 -268q23 103 23 213v413zM586 424
q-66 -47 -164 -102h371q90 0 90 73q0 65 -121 174q-88 -85 -176 -145zM731 -365h191l-41 -167h-342q-76 0 -154 -25v164q53 18 82 24l35 4q-45 39 -45 105q0 80 58 134t144 54q108 0 185 -41v-157q-76 32 -133 32q-36 0 -60 -18t-24 -47q0 -31 29.5 -46.5t74.5 -15.5z" />
    <glyph glyph-name="uniFEFA" unicode="&#xfee0;&#xfe88;" horiz-adv-x="1394" arabic-form="final" 
d="M911 1485h306l2 -979q0 -99 38.5 -141.5t133.5 -42.5q20 0 20 -21l2 -278q0 -23 -20 -23q-240 0 -361 109l-2 2l-69 -29q-105 -36 -226.5 -59t-212.5 -23q-282 0 -493 70v311q120 -35 247 -47q98 -8 134 -10q-2 34 -15 131q-5 34 -13.5 78t-24 116t-31.5 140t-46 198
t-55 242h310q135 -613 153 -754q7 -53 4 -113q0 -22 -2 -32q31 2 84 10l125 18l16 4q-2 18 -2 58zM715 -367h190l-41 -168h-342q-78 0 -153 -24v164q52 18 80 24l34 4q-43 40 -43 105q0 80 58.5 134t144.5 54q107 0 184 -41v-157q-76 32 -133 32q-36 0 -60 -18t-24 -47
q0 -30 30 -46t75 -16z" />
    <glyph glyph-name="uniFEFB" unicode="&#xfedf;&#xfe8e;" horiz-adv-x="1245" arabic-form="isolated" 
d="M723 1587h305v-413q0 -171 -61 -308q-8 -19 -54 -102l115 -105q166 -153 166 -311q0 -73 -24 -135t-70.5 -110t-122.5 -75.5t-174 -27.5h-645l-140 322q197 99 327 185.5t212 180.5q4 4 9 10t11 13.5t9 11.5l-545 485l8 21h359l292 -268q23 103 23 213v413zM586 424
q-66 -47 -164 -102h371q90 0 90 73q0 65 -121 174q-88 -85 -176 -145z" />
    <glyph glyph-name="uniFEFC" unicode="&#xfee0;&#xfe8e;" horiz-adv-x="1394" arabic-form="final" 
d="M911 1485h306l2 -979q0 -99 38.5 -141.5t133.5 -42.5q20 0 20 -21l2 -278q0 -23 -20 -23q-240 0 -361 109l-2 2l-69 -29q-105 -36 -226.5 -59t-212.5 -23q-282 0 -493 70v311q120 -35 247 -47q98 -8 134 -10q-2 34 -15 131q-5 34 -13.5 78t-24 116t-31.5 140t-46 198
t-55 242h310q135 -613 153 -754q7 -53 4 -113q0 -22 -2 -32q31 2 84 10l125 18l16 4q-2 18 -2 58z" />
    <glyph glyph-name="uni0407_uni0407" unicode="&#x407;&#x407;" horiz-adv-x="1193" 
d="M946 1815h350v-232h-350v232zM485 1485v-1485h-350v1485h350zM1059 1485v-1485h-350v1485h350zM422 1815h350v-232h-350v232zM-100 1815h350v-232h-350v232z" />
    <glyph glyph-name="uni0457_uni0457" unicode="&#x457;&#x457;" horiz-adv-x="1173" 
d="M713 1102h340v-1102h-340v1102zM121 1102h340v-1102h-340v1102zM-86 1485h303v-238h-303v238zM958 1485h304v-238h-304v238zM434 1485h303v-238h-303v238z" />
    <glyph glyph-name="uniFEDF_uniFB51" unicode="&#xfedf;&#xfb51;" horiz-adv-x="1245" 
d="M723 1587h305v-413q0 -171 -61 -308q-8 -19 -54 -102l115 -105q166 -153 166 -311q0 -73 -24 -135t-70.5 -110t-122.5 -75.5t-174 -27.5h-645l-140 322q197 99 327 185.5t212 180.5q4 4 9 10t11 13.5t9 11.5l-545 485l8 21h359l292 -268q23 103 23 213v413zM586 424
q-66 -47 -164 -102h371q90 0 90 73q0 65 -121 174q-88 -85 -176 -145zM397 1718q83 0 141 -55.5t58 -134.5q0 -99 -85 -155t-235 -56q-158 0 -311 61l45 144q79 -25 86 -27l62 76q68 77 125 112t114 35zM281 1473q139 0 139 53q0 19 -15 31t-38 12q-55 0 -148 -88l-4 -6
q25 -2 66 -2z" />
    <glyph glyph-name="uniFEE0_uniFB51" unicode="&#xfee0;&#xfb51;" horiz-adv-x="1394" 
d="M911 1485h306l2 -979q0 -99 38.5 -141.5t133.5 -42.5q20 0 20 -21l2 -278q0 -23 -20 -23q-240 0 -361 109l-2 2l-69 -29q-105 -36 -226.5 -59t-212.5 -23q-282 0 -493 70v311q120 -35 247 -47q98 -8 134 -10q-2 34 -15 131q-5 34 -13.5 78t-24 116t-31.5 140t-46 198
t-55 242h310q135 -613 153 -754q7 -53 4 -113q0 -22 -2 -32q31 2 84 10l125 18l16 4q-2 18 -2 58zM492 1724q83 0 140.5 -55t57.5 -135q0 -100 -84.5 -155.5t-234.5 -55.5q-159 0 -312 61l45 144q83 -27 84 -27q12 15 33.5 40t30.5 36q130 147 240 147zM375 1479
q139 0 139 53q0 19 -15 31t-38 12q-55 0 -148 -88l-6 -6q25 -2 68 -2z" />
    <glyph glyph-name="uni066E.init" unicode="&#x66e;" horiz-adv-x="571" 
d="M115 993h305q59 -383 59 -573q0 -203 -121 -311.5t-358 -108.5q-20 0 -20 23l2 278q0 21 20 21q95 0 134.5 43t39.5 141q0 107 -61 487z" />
    <glyph glyph-name="uni066E.medi" unicode="&#x66e;" horiz-adv-x="671" 
d="M211 758h281q0 -155 -19 -291l-18 -92q54 -28 77 -33q64 -20 140 -20q20 0 20 -21v-278q0 -23 -20 -23q-182 0 -326 141q-35 -43 -88 -78q-97 -63 -258 -63q-20 0 -20 23v278q0 21 20 21q121 0 168 86q25 48 34 130t9 220z" />
    <glyph glyph-name="uni066E.fina" unicode="&#x66e;" horiz-adv-x="1736" 
d="M1276 758h280q0 -162 -18 -291l-18 -92q54 -28 77 -33q64 -20 140 -20q20 0 20 -21v-278q0 -23 -20 -23q-182 0 -326 141q-35 -43 -88 -78q-79 -52 -203 -61q-2 -2 -10 -2h-23h-22h-485q-263 0 -397 126.5t-134 373.5q0 157 49 401h279q-37 -182 -37 -315q0 -140 69 -202
t244 -62h406h6h18q106 6 150 86q25 48 34 130t9 220z" />
    <glyph glyph-name="uni066F.fina" unicode="&#x66f;" horiz-adv-x="1628" 
d="M1047 1028q203 0 327 -132.5t137 -369.5l7 -172v-32h110q21 0 21 -21v-278q0 -23 -21 -23h-115q-8 -54 -32 -113q-66 -158 -249 -242.5t-484 -84.5q-699 0 -699 561q0 114 21 215t67 248h279q-86 -230 -86 -387q0 -185 111 -271t352 -86q153 0 257.5 41.5t149.5 110.5
l6 8h-127q-239 0 -380.5 134.5t-141.5 369.5q0 224 140.5 374t349.5 150zM1223 313l-13 191q-15 213 -184 213q-79 0 -132.5 -57t-53.5 -146q0 -103 69.5 -154t200.5 -51q52 0 72 2q27 0 41 2z" />
    <glyph glyph-name="uni06A1.init" unicode="&#x6a1;" horiz-adv-x="1095" 
d="M539 1049q210 0 348.5 -139.5t138.5 -350.5q0 -253 -154 -406t-411 -153h-461q-20 0 -20 23v278q0 21 20 21h166q-2 2 -2 4q-98 134 -98 266q0 194 135.5 325.5t337.5 131.5zM446 322h17q121 0 188.5 61t67.5 170q0 85 -53.5 141t-133.5 56q-85 0 -136.5 -56.5
t-51.5 -142.5q0 -75 72 -182z" />
    <glyph glyph-name="uni06A1.medi" unicode="&#x6a1;" horiz-adv-x="1099" 
d="M547 1049q202 0 334.5 -132t132.5 -323q0 -130 -101 -260q77 -12 187 -12q20 0 20 -21v-278q0 -23 -20 -23q-223 0 -512 88l-13 4l-38 -14q-245 -78 -537 -78q-20 3 -20 23v278q0 21 20 21q100 0 180 6l-2 2q-92 115 -92 266q0 123 56 226t162.5 165t242.5 62zM668 422
q47 62 47 135q0 84 -53 137.5t-130 53.5q-78 0 -128 -54t-50 -135q0 -72 47 -137q45 -61 129 -90q90 29 138 90z" />
    <glyph glyph-name="uni06A1.fina" unicode="&#x6a1;" horiz-adv-x="1935" 
d="M1382 1049q202 0 334.5 -132t132.5 -323q0 -131 -100 -260q77 -12 186 -12q21 0 21 -21v-278q0 -23 -21 -23q-223 0 -512 88l-12 4l-39 -14q-245 -78 -536 -78q-21 3 -21 23v278q0 21 21 21q100 0 180 6l-2 2q-92 115 -92 266q0 123 56 226t162 165t242 62zM1503 422
q47 62 47 135q0 85 -52.5 138t-129.5 53q-78 0 -128 -54t-50 -135q0 -72 47 -137q45 -61 129 -90q89 29 137 90zM92 795h277q-29 -135 -29 -209q0 -140 69 -202t244 -62h211q21 0 21 -21v-278q0 -23 -21 -23h-284q-263 0 -395 126t-132 372q0 118 39 297z" />
    <glyph glyph-name="uni06AA.init" unicode="&#x6aa;" horiz-adv-x="1669" 
d="M504 1485h403l-565 -567h737q232 0 375 -122t143 -321q0 -223 -129 -349t-358 -126h-1110q-20 0 -20 23v278q0 21 20 21h1102q90 0 140 40.5t50 112.5t-52.5 114t-145.5 42h-893l-164 287z" />
    <glyph glyph-name="uni06AA.medi" unicode="&#x6aa;" horiz-adv-x="1742" 
d="M504 1485h403l-565 -567h737q232 0 375 -122t143 -321q0 -223 -129 -349t-358 -126h-1110q-20 0 -20 23v278q0 21 20 21h1102q90 0 140 40.5t50 112.5t-52.5 114t-145.5 42h-893l-164 287zM1337 238l133 174q120 -90 273 -90q20 0 20 -21v-278q0 -23 -20 -23
q-233 0 -406 238z" />
    <glyph glyph-name="uni06AA.fina" unicode="&#x6aa;" horiz-adv-x="1921" 
d="M719 1485h403l-565 -567h705q232 0 375 -122t143 -321q0 -223 -129.5 -349t-358.5 -126h-786q-128 0 -237 34t-234 113l131 283q109 -60 192 -84t183 -24h743q88 0 139.5 40.5t51.5 112.5t-53.5 114t-145.5 42h-860l-164 287zM1516 238l133 174q120 -90 272 -90
q21 0 21 -21v-278q0 -23 -21 -23q-232 0 -405 238z" />
    <glyph glyph-name="uni06C2.fina" unicode="&#x6c2;" horiz-adv-x="1103" 
d="M682 1102h305v-658q0 -62 28.5 -92t90.5 -30q20 0 20 -21v-278q0 -23 -20 -23q-206 0 -307 94q-78 -41 -127 -59q-84 -35 -176 -35q-211 0 -329 112t-118 310q0 158 106 295.5t308 218.5q92 39 219 61v105zM463 659q-123 -83 -123 -202q0 -68 42.5 -108t119.5 -40
q94 0 184 33q-4 54 -4 84v319q-133 -27 -219 -86zM883 1397h190l-41 -166h-342q-75 0 -153 -25v162q61 21 81 23q20 4 35 4q-45 42 -45 108q0 80 58.5 134.5t144.5 54.5q107 0 184 -41v-158q-80 31 -133 31q-36 0 -60 -17.5t-24 -46.5q0 -31 30.5 -47t74.5 -16z" />
    <glyph glyph-name="uni06C3.fina" unicode="&#x6c3;" horiz-adv-x="1290" 
d="M631 924q129 0 222 -71.5t179 -236.5q11 -19 35 -66t37 -70t37 -59t44 -53.5t47.5 -31.5t57.5 -14q21 0 21 -21v-278q0 -23 -21 -23q-157 0 -250.5 73.5t-179.5 264.5q-66 146 -113 202t-118 56q-68 0 -123.5 -60t-122.5 -214l-76 -172l-258 118l76 172
q117 265 230 374.5t276 109.5zM250 1270l205 207l157 -154l156 154l209 -207l-205 -205l-158 152l-155 -152z" />
    <glyph glyph-name="uniFB51" unicode="&#x671;" horiz-adv-x="632" arabic-form="final" 
d="M152 1229h305l2 -723q0 -98 39.5 -141t134.5 -43q20 0 20 -21v-278q0 -23 -20 -23q-237 0 -358 108.5t-121 311.5zM401 1681q83 0 141 -55.5t58 -134.5q0 -100 -84.5 -155.5t-234.5 -55.5q-159 0 -312 61l45 144q79 -25 86 -27l62 76q68 77 125 112t114 35zM285 1436
q139 0 139 53q0 19 -15 31t-38 12q-55 0 -148 -88l-4 -6q25 -2 66 -2z" />
    <glyph glyph-name="uniFB57" unicode="&#x67e;" horiz-adv-x="1736" arabic-form="final" 
d="M1276 758h280q0 -162 -18 -291l-18 -92q54 -28 77 -33q64 -20 140 -20q20 0 20 -21v-278q0 -23 -20 -23q-182 0 -326 141q-35 -43 -88 -78q-79 -52 -203 -61q-2 -2 -10 -2h-45h-6h-479q-263 0 -397 126.5t-134 373.5q0 157 49 401h279q-37 -182 -37 -315q0 -140 69 -202
t244 -62h406h6h18q106 6 150 86q25 48 34 130t9 220zM547 -324l205 207l161 -157l160 157l209 -207l-207 -208l-162 159l-157 -159zM770 -600l141 145l146 -145l-144 -143z" />
    <glyph glyph-name="uniFB58" unicode="&#x67e;" horiz-adv-x="737" arabic-form="initial" 
d="M285 993h307q59 -383 59 -573q0 -203 -121 -311.5t-358 -108.5h-172q-20 0 -20 23l2 278q0 21 20 21h172q95 0 133.5 42.5t38.5 141.5q0 107 -61 487zM-63 -317l204 206l162 -157l160 157l209 -206l-207 -209l-162 159l-158 -159zM160 -594l141 145l145 -145l-143 -143z
" />
    <glyph glyph-name="uniFB59" unicode="&#x67e;" horiz-adv-x="780" arabic-form="medial" 
d="M268 758h281q0 -139 -17 -289q-3 -36 -12 -70q46 -30 113 -53q77 -24 147 -24q21 0 21 -21v-278q0 -23 -21 -23q-119 0 -227 63q-68 39 -131 105q-49 -64 -125 -107q-110 -61 -297 -61q-20 0 -20 23v278q0 21 20 21q156 0 213 81q34 47 44.5 128t10.5 227zM8 -319
l205 206l162 -157l160 157l208 -206l-206 -209l-162 159l-158 -159zM231 -596l142 145l145 -145l-143 -143z" />
    <glyph glyph-name="uniFB67" unicode="&#x679;" horiz-adv-x="1736" arabic-form="final" 
d="M1276 758h280q0 -162 -18 -291l-18 -92q54 -28 77 -33q64 -20 140 -20q20 0 20 -21v-278q0 -23 -20 -23q-182 0 -326 141q-35 -43 -88 -78q-79 -52 -203 -61q-2 -2 -10 -2h-530q-263 0 -397 126.5t-134 373.5q0 157 49 401h279q-37 -182 -37 -315q0 -140 69 -202t244 -62
h430q106 6 150 86q25 48 34 130t9 220zM719 1372h135v-164l-6 -32q34 39 72 69q84 66 153 66q89 0 148 -57t59 -138q0 -99 -93.5 -157t-252.5 -58h-264l-74 150h123v321zM864 1051h72q166 0 166 63q0 23 -17 36t-43 13q-32 0 -67.5 -21.5t-93.5 -76.5z" />
    <glyph glyph-name="uniFB68" unicode="&#x679;" horiz-adv-x="782" arabic-form="initial" 
d="M285 993h307q59 -383 59 -573q0 -203 -121 -311.5t-358 -108.5h-172q-20 0 -20 23l2 278q0 21 20 21h172q95 0 133.5 42.5t38.5 141.5q0 107 -61 487zM186 1573h136v-164l-7 -33q41 45 74 70q83 65 152 65q89 0 148 -56.5t59 -137.5q0 -99 -94 -157t-253 -58h-264
l-74 149h123v322zM334 1251h69q166 0 166 64q0 23 -16.5 36t-42.5 13q-33 0 -69.5 -22t-90.5 -76z" />
    <glyph glyph-name="uniFB69" unicode="&#x679;" horiz-adv-x="780" arabic-form="medial" 
d="M268 758h281q0 -139 -17 -289q-3 -36 -12 -70q46 -30 113 -53q77 -24 147 -24q21 0 21 -21v-278q0 -23 -21 -23q-119 0 -227 63q-68 39 -131 105q-49 -64 -125 -107q-110 -61 -297 -61q-20 0 -20 23v278q0 21 20 21q156 0 213 81q34 47 44.5 128t10.5 227zM184 1374h135
v-164l-6 -32q38 41 74 69q84 66 152 66q89 0 147.5 -57t58.5 -138q0 -99 -93.5 -157t-252.5 -58h-264l-74 150h123v321zM332 1053h69q166 0 166 63q0 23 -16.5 36t-42.5 13q-33 0 -69.5 -22t-90.5 -76z" />
    <glyph glyph-name="uniFB6B" unicode="&#x6a4;" horiz-adv-x="1935" arabic-form="final" 
d="M1382 1049q202 0 334.5 -132t132.5 -323q0 -131 -100 -260q77 -12 186 -12q21 0 21 -21v-278q0 -23 -21 -23q-223 0 -512 88l-12 4l-39 -14q-245 -78 -536 -78q-21 3 -21 23v278q0 21 21 21q100 0 180 6l-2 2q-92 115 -92 266q0 123 56 226t162 165t242 62zM1503 422
q47 62 47 135q0 85 -52.5 138t-129.5 53q-78 0 -128 -54t-50 -135q0 -72 47 -137q45 -61 129 -90q89 29 137 90zM92 795h277q-29 -135 -29 -209q0 -140 69 -202t244 -62h211q21 0 21 -21v-278q0 -23 -21 -23h-284q-263 0 -395 126t-132 372q0 118 39 297zM1016 1327l205 209
l161 -162l162 162l207 -209l-205 -207l-164 160l-159 -160zM1241 1614l141 143l146 -143l-144 -144z" />
    <glyph glyph-name="uniFB6C" unicode="&#x6a4;" horiz-adv-x="1095" arabic-form="initial" 
d="M539 1049q210 0 348.5 -139.5t138.5 -350.5q0 -253 -154 -406t-411 -153h-461q-20 0 -20 23v278q0 21 20 21h166q-2 2 -2 4q-98 134 -98 266q0 194 135.5 325.5t337.5 131.5zM446 322h17q121 0 188.5 61t67.5 170q0 85 -53.5 141t-133.5 56q-85 0 -136.5 -56.5
t-51.5 -142.5q0 -75 72 -182zM180 1327l205 209l162 -162l162 162l206 -209l-204 -207l-164 160l-160 -160zM406 1614l141 143l145 -143l-143 -144z" />
    <glyph glyph-name="uniFB6D" unicode="&#x6a4;" horiz-adv-x="1099" arabic-form="medial" 
d="M547 1049q202 0 334.5 -132t132.5 -323q0 -130 -101 -260q77 -12 187 -12q20 0 20 -21v-278q0 -23 -20 -23q-223 0 -512 88l-13 4l-38 -14q-245 -78 -537 -78q-20 3 -20 23v278q0 21 20 21q100 0 180 6l-2 2q-92 115 -92 266q0 123 56 226t162.5 165t242.5 62zM668 422
q47 62 47 135q0 84 -53 137.5t-130 53.5q-78 0 -128 -54t-50 -135q0 -72 47 -137q45 -61 129 -90q90 29 138 90zM176 1327l205 209l162 -162l162 162l206 -209l-204 -207l-164 160l-160 -160zM401 1614l142 143l145 -143l-143 -144z" />
    <glyph glyph-name="uniFB7B" unicode="&#x686;" horiz-adv-x="1333" arabic-form="final" 
d="M408 1104q70 0 140 -23.5t127 -59t125 -81t130.5 -88t146.5 -80.5t170 -57l-88 -318q-57 0 -86 -2q2 -2 2 -6q6 -47 52.5 -57t205.5 -10q21 0 21 -21v-278q0 -23 -21 -23q-194 0 -297.5 92t-103.5 273v12q-29 -3 -64 -12q-221 -46 -368.5 -159t-147.5 -259q0 -78 34 -153
t112 -165l-271 -100q-168 206 -168 395q0 221 147.5 375t403.5 236q99 33 213 55q-39 18 -53 26q-31 18 -85.5 51.5t-84 50t-72 36.5t-81 28.5t-80.5 8.5q-95 0 -226 -52v279q131 86 267 86zM569 -319l205 206l162 -157l160 157l209 -206l-207 -209l-162 159l-158 -159z
M793 -596l141 145l145 -145l-143 -143z" />
    <glyph glyph-name="uniFB7C" unicode="&#x686;" horiz-adv-x="1226" arabic-form="initial" 
d="M389 1028q80 0 157 -28t147 -72.5t140.5 -92t166.5 -94t198 -71.5l-88 -318q-93 -15 -174 -43t-140 -59.5t-118 -67t-122.5 -67.5t-138 -58t-180.5 -41.5t-235 -15.5q-22 0 -22 23v278q0 21 22 21q104 0 195.5 8t151.5 18t130 31t104 34.5t103 42t98 40.5l47 18
q-18 7 -100 47q-20 11 -80 45.5t-82 45.5t-66.5 30.5t-81 26t-77.5 6.5q-97 0 -225 -49v276q136 86 270 86zM221 -319l205 206l162 -157l160 157l208 -206l-206 -209l-162 159l-158 -159zM444 -596l142 145l145 -145l-143 -143z" />
    <glyph glyph-name="uniFB7D" unicode="&#x686;" horiz-adv-x="1292" arabic-form="medial" 
d="M389 1028q80 0 157 -28t147 -72.5t140.5 -92t166.5 -94t198 -71.5l-86 -312q24 -15 59 -24q47 -12 121 -12q21 0 21 -21v-278q0 -23 -21 -23q-176 0 -280 96q-82 79 -97 207q-2 -2 -6 -2q-72 -27 -151 -71.5t-142.5 -81t-146.5 -72t-200.5 -56t-266.5 -20.5q-22 0 -22 23
v278q0 21 22 21q104 0 195.5 8t151.5 18t130 31t104 34.5t103 42t98 40.5l47 18q-18 7 -100 47q-20 11 -80 45.5t-82 45.5t-66.5 30.5t-81 26t-77.5 6.5q-97 0 -225 -49v276q136 86 270 86zM221 -319l205 206l162 -157l160 157l208 -206l-206 -209l-162 159l-158 -159z
M444 -596l142 145l145 -145l-143 -143z" />
    <glyph glyph-name="uniFB89" unicode="&#x688;" horiz-adv-x="1028" arabic-form="final" 
d="M8 70v311q122 -35 201.5 -47t169.5 -12q78 0 156 10l49 8l-4 16q-76 224 -152 637h309q53 -349 97 -489q53 -182 194 -182q21 0 21 -21v-278q0 -23 -21 -23q-158 0 -274 90q-20 16 -31 27q-84 -54 -156 -80q-100 -35 -215 -35q-92 0 -160.5 14.5t-183.5 53.5zM311 1573
h135v-164l-6 -33q41 45 74 70q83 65 152 65q89 0 147.5 -56.5t58.5 -137.5q0 -99 -93.5 -157t-252.5 -58h-264l-74 149h123v322zM459 1251h69q166 0 166 64q0 23 -16.5 36t-42.5 13q-33 0 -69.5 -22t-90.5 -76z" />
    <glyph glyph-name="uniFB8B" unicode="&#x698;" horiz-adv-x="749" arabic-form="final" 
d="M186 901h306q32 -245 47 -430q17 -192 20 -395q-54 63 -57 170l-6 334h28l17 -123q19 -135 209 -135q20 0 20 -21v-278q0 -23 -20 -23q-117 0 -183 66l-8 10v-31q0 -248 -143 -366.5t-426 -118.5v260q123 0 198.5 60t75.5 181q0 71 -3.5 143t-14 175t-15.5 150t-23 193
t-22 179zM-45 1253l205 209l162 -162l161 162l207 -209l-205 -206l-163 159l-160 -159zM180 1540l142 143l145 -143l-143 -143z" />
    <glyph glyph-name="uniFB8D" unicode="&#x691;" horiz-adv-x="749" arabic-form="final" 
d="M186 901h306q32 -245 47 -430q17 -192 20 -395q-54 63 -57 170l-6 334h28l17 -123q19 -135 209 -135q20 0 20 -21v-278q0 -23 -20 -23q-117 0 -183 66l-8 10v-31q0 -248 -143 -366.5t-426 -118.5v260q123 0 198.5 60t75.5 181q0 71 -3.5 143t-14 175t-15.5 150t-23 193
t-22 179zM119 1485h135v-164l-6 -33q38 44 71 70q83 65 154 65q89 0 148 -56.5t59 -137.5q0 -99 -93.5 -157t-252.5 -58h-264l-74 149h123v322zM264 1163h72q166 0 166 64q0 23 -17 36t-43 13q-32 0 -67.5 -21.5t-93.5 -76.5z" />
    <glyph glyph-name="uniFB8F" unicode="&#x6a9;" horiz-adv-x="2078" arabic-form="final" 
d="M100 901h279q-37 -182 -37 -315q0 -140 69 -202t244 -62h457q21 0 21 -21v-278q0 -23 -21 -23h-530q-263 0 -397 126.5t-134 373.5q0 157 49 401zM1401 1628h436v-12l-696 -572l327 -139q186 -78 274.5 -189.5t88.5 -269.5q0 -211 -141.5 -328.5t-397.5 -117.5h-610
q-20 0 -20 23v278q0 21 20 21h627q98 0 157.5 33t59.5 89q0 54 -49 99t-158 92l-524 231v211zM1673 238l133 174q120 -90 273 -90q20 0 20 -21v-278q0 -23 -20 -23q-233 0 -406 238z" />
    <glyph glyph-name="uniFB90" unicode="&#x6a9;" horiz-adv-x="1200" arabic-form="initial" 
d="M719 1628h436v-12l-696 -572l327 -139q186 -78 274.5 -189.5t88.5 -269.5q0 -211 -141.5 -328.5t-397.5 -117.5h-610q-20 0 -20 23v278q0 21 20 21h627q98 0 157.5 33t59.5 89q0 54 -49 99t-158 92l-524 231v211z" />
    <glyph glyph-name="uniFB91" unicode="&#x6a9;" horiz-adv-x="1351" arabic-form="medial" 
d="M719 1628h436v-12l-696 -572l327 -139q186 -78 274.5 -189.5t88.5 -269.5q0 -211 -141.5 -328.5t-397.5 -117.5h-610q-20 0 -20 23v278q0 21 20 21h627q98 0 157.5 33t59.5 89q0 54 -49 99t-158 92l-524 231v211zM946 238l133 174q120 -90 273 -90q20 0 20 -21v-278
q0 -23 -20 -23q-233 0 -406 238z" />
    <glyph glyph-name="uniFB93" unicode="&#x6af;" horiz-adv-x="2078" arabic-form="final" 
d="M100 901h279q-37 -182 -37 -315q0 -140 69 -202t244 -62h457q21 0 21 -21v-278q0 -23 -21 -23h-530q-263 0 -397 126.5t-134 373.5q0 157 49 401zM1401 1628h436v-12l-696 -572l327 -139q186 -78 274.5 -189.5t88.5 -269.5q0 -211 -141.5 -328.5t-397.5 -117.5h-610
q-20 0 -20 23v278q0 21 20 21h627q98 0 157.5 33t59.5 89q0 54 -49 99t-158 92l-524 231v211zM1673 238l133 174q120 -90 273 -90q20 0 20 -21v-278q0 -23 -20 -23q-233 0 -406 238zM1114 1628v-8l-442 -416l-101 105l316 319h227z" />
    <glyph glyph-name="uniFB94" unicode="&#x6af;" horiz-adv-x="1507" arabic-form="initial" 
d="M1026 1628h436v-12l-696 -572l328 -139q186 -78 274 -189.5t88 -269.5q0 -211 -141 -328.5t-397 -117.5h-611q-20 0 -20 23v278q0 21 20 21h627q98 0 157.5 33t59.5 89q0 54 -49 99t-158 92l-524 231v211zM688 1628v-8l-442 -416l-101 105l316 319h227zM0 322h397
q21 0 21 -21v-278q0 -23 -21 -23h-397q-20 0 -20 23v278q0 21 20 21z" />
    <glyph glyph-name="uniFB95" unicode="&#x6af;" horiz-adv-x="1691" arabic-form="medial" 
d="M1059 1628h436v-12l-696 -572l327 -139q186 -78 274.5 -189.5t88.5 -269.5q0 -211 -141.5 -328.5t-397.5 -117.5h-610q-21 0 -21 23v278q0 21 21 21h627q98 0 157.5 33t59.5 89q0 54 -49 99t-158 92l-524 231v211zM1286 238l133 174q120 -90 273 -90q20 0 20 -21v-278
q0 -23 -20 -23q-233 0 -406 238zM721 1628v-8l-442 -416l-101 105l316 319h227zM0 322h397q21 0 21 -21v-278q0 -23 -21 -23h-397q-20 0 -20 23v278q0 21 20 21z" />
    <glyph glyph-name="uniFB9F" unicode="&#x6ba;" horiz-adv-x="1445" arabic-form="final" 
d="M874 901h306q42 -283 53 -407l6 -37q19 -135 209 -135q20 0 20 -21v-278q0 -23 -20 -23q-116 0 -182 66l-21 24q-21 -224 -153 -362q-155 -168 -471 -168q-276 0 -424 145t-148 416q0 114 21 215t67 248h279q-86 -230 -86 -387q0 -147 74 -231.5t221 -84.5q327 0 327 344
q0 121 -17 265.5t-61 410.5z" />
    <glyph glyph-name="uniFBA7" unicode="&#x6c1;" horiz-adv-x="1290" arabic-form="final" 
d="M631 924q129 0 222 -71.5t179 -236.5q11 -19 35 -66t37 -70t37 -59t44 -53.5t47.5 -31.5t57.5 -14q21 0 21 -21v-278q0 -23 -21 -23q-157 0 -250.5 73.5t-179.5 264.5q-66 146 -113 202t-118 56q-68 0 -123.5 -60t-122.5 -214l-76 -172l-258 118l76 172
q117 265 230 374.5t276 109.5z" />
    <glyph glyph-name="uniFBA8" unicode="&#x6c1;" horiz-adv-x="561" arabic-form="initial" 
d="M154 -92h221l-90 -195h125l-43 -276h-308v270zM115 993h305q59 -383 59 -573q0 -203 -121 -311.5t-358 -108.5q-20 0 -20 23l2 278q0 21 20 21q95 0 134.5 43t39.5 141q0 107 -61 487z" />
    <glyph glyph-name="uniFBA9" unicode="&#x6c1;" horiz-adv-x="1542" arabic-form="medial" 
d="M199 758h317v-664q0 -178 78 -250q65 -62 213 -71v80q0 228 115 348.5t331 120.5h289q21 0 21 -23v-279q0 -20 -21 -20h-264q-103 0 -150 -51.5t-47 -161.5v-123l-215 -227q-344 0 -506 155q-158 152 -161 471q-81 -63 -199 -63q-20 0 -20 23v278q0 21 20 21
q145 0 182 84q14 25 17 67v285zM1264 -92h221l-90 -195h125l-43 -276h-308v270z" />
    <glyph glyph-name="uniFBAB" unicode="&#x6be;" horiz-adv-x="1280" arabic-form="final" 
d="M657 1190h254q134 -119 213.5 -274.5t79.5 -301.5q0 -157 -106 -278q14 0 22 -2q80 -12 160 -12q20 0 20 -23v-279q0 -20 -20 -20q-46 0 -84 6q-12 3 -63 19q25 -36 36 -68q17 -56 17 -96q0 -131 -101 -216t-256 -85q-316 0 -467 215q-40 61 -51 84q-46 -33 -135 -107
l-168 223q129 109 230 177q-5 78 -5 96q0 261 109.5 511t314.5 431zM602 342q295 108 295 266q0 106 -53 195q-41 71 -101 137q-48 -54 -86 -119q-96 -162 -133 -362q-11 -73 -14 -156q72 33 92 39zM696 74q-57 -24 -127 -58q15 -26 27 -43q85 -114 201 -114q61 0 96 27
t35 77q0 52 -31 100q-23 38 -61 76q-62 -33 -140 -65z" />
    <glyph glyph-name="uniFBAC" unicode="&#x6be;" horiz-adv-x="1574" arabic-form="initial" 
d="M487 1157l-2 287q498 0 758 -207.5t260 -601.5q0 -168 -73 -387l-279 -275q-164 -3 -326 43q-128 40 -229 84q-30 -13 -59 -22q-245 -78 -537 -78q-20 3 -20 23v278q0 21 20 21q100 0 180 6l-2 2q-92 115 -92 266q0 123 56 226t162.5 165t242.5 62q202 0 334.5 -132
t132.5 -323q0 -131 -103 -262q-7 -8 -10 -15l37 -6q106 -16 203 -16q67 164 67 328q0 83 -26.5 159.5t-84 145t-140.5 119.5t-203.5 80.5t-266.5 29.5zM668 422q47 62 47 135q0 84 -53 137.5t-130 53.5q-78 0 -128 -54t-50 -135q0 -72 47 -137q45 -61 129 -90q90 29 138 90z
" />
    <glyph glyph-name="uniFBAD" unicode="&#x6be;" horiz-adv-x="1122" arabic-form="medial" 
d="M512 1180h254q131 -127 206 -273.5t75 -292.5q0 -153 -86 -268l-9 -12h11q79 -12 159 -12q21 0 21 -23v-279q0 -20 -21 -20q-46 0 -84 6q-12 3 -63 19q27 -38 37 -68q18 -49 18 -96q0 -131 -100.5 -216t-255.5 -85q-121 0 -220 33t-167 92.5t-113 135t-68 167.5l-4 14
q-35 -2 -102 -2q-20 0 -20 23v278q0 21 20 21h78q10 96 26 176q46 198 151.5 375.5t256.5 306.5zM367 344q208 35 291 100.5t83 163.5q0 109 -51 189t-94 131q-54 -64 -90 -121q-105 -171 -141 -363q-14 -80 -15 -102q6 2 17 2zM395 39q16 -36 41 -68q83 -112 203 -112
q61 0 96 27t35 77q0 52 -31 100q-16 31 -55 70q-119 -58 -289 -94z" />
    <glyph glyph-name="uniFBAF" unicode="&#x6d2;" horiz-adv-x="1527" arabic-form="final" 
d="M588 334h938q20 0 20 -21v-290q0 -23 -20 -23h-991q-148 0 -148 -72q0 -75 176 -75h758l-121 -293h-588q-542 0 -542 370q0 198 130 301t388 103z" />
    <glyph glyph-name="uniFBB1" unicode="&#x6d3;" horiz-adv-x="1527" arabic-form="final" 
d="M588 334h938q20 0 20 -21v-290q0 -23 -20 -23h-991q-148 0 -148 -72q0 -75 176 -75h758l-121 -293h-588q-542 0 -542 370q0 198 130 301t388 103zM750 713h208l-63 -207h-262q-106 0 -217 -35v201q85 28 112 33l-2 2q-41 41 -41 110q0 93 65.5 154t170.5 61q69 0 156 -43
v-184q-79 29 -142 29q-39 0 -62.5 -16.5t-23.5 -45.5q0 -35 31 -47q27 -9 70 -12z" />
    <glyph glyph-name="uniFBFD" unicode="&#x6cc;" horiz-adv-x="1398" arabic-form="final" 
d="M954 102v306q163 -51 256 -67.5t187 -16.5q20 0 20 -21v-280q0 -23 -20 -23h-11q-101 -209 -264 -317q-187 -123 -473 -123q-279 0 -439.5 147t-160.5 414q0 114 21 215t67 248h279q-86 -230 -86 -387q0 -161 89.5 -238.5t272.5 -77.5q178 0 309 64q83 37 138 96
q-87 22 -185 61z" />
    <glyph glyph-name="uniFBFE" unicode="&#x6cc;" horiz-adv-x="737" arabic-form="initial" 
d="M285 993h307q59 -383 59 -573q0 -203 -121 -311.5t-358 -108.5h-172q-20 0 -20 23l2 278q0 21 20 21h172q95 0 133.5 42.5t38.5 141.5q0 107 -61 487zM-35 -315l207 206l147 -141l144 141l209 -206l-205 -207l-148 143l-143 -143z" />
    <glyph glyph-name="uniFBFF" unicode="&#x6cc;" horiz-adv-x="780" arabic-form="medial" 
d="M268 758h281q0 -139 -17 -289q-3 -36 -12 -70q46 -30 113 -53q77 -24 147 -24q21 0 21 -21v-278q0 -23 -21 -23q-119 0 -227 63q-68 39 -131 105q-49 -64 -125 -107q-110 -61 -297 -61q-20 0 -20 23v278q0 21 20 21q156 0 213 81q34 47 44.5 128t10.5 227zM10 -317
l207 206l148 -141l143 141l209 -206l-205 -207l-147 143l-144 -143z" />
    <glyph glyph-name="uniFC02" unicode="&#xfc02;" horiz-adv-x="1187" arabic-form="isolated" 
d="M803 1090h20l195 -181q-83 -89 -117.5 -153t-34.5 -135q0 -91 64 -169t209 -173h-2l-160 -283q-105 15 -205 70q-85 52 -127 96q-27 8 -43 10q-55 10 -94 10q-79 0 -116.5 -50.5t-37.5 -158.5q0 -167 62 -536h-305q-62 394 -62 565q0 220 118.5 356t319.5 136q48 0 99 -7
l22 -4q-47 92 -47 195q0 109 63 217t179 195zM883 1415h209l-64 -207h-262q-110 0 -217 -34v200q84 27 113 33l-3 2q-41 41 -41 111q0 93 65.5 154t170.5 61q69 0 156 -43v-185q-79 29 -142 29q-39 0 -62.5 -16t-23.5 -45q0 -36 31 -48q27 -9 70 -12z" />
    <glyph glyph-name="uniFC03" unicode="&#xfc03;" horiz-adv-x="1820" arabic-form="isolated" 
d="M1346 993h305q61 -396 61 -573q0 -206 -123 -314q-85 -73 -213 -96q-45 -91 -102 -170q-106 -145 -261.5 -212.5t-371.5 -67.5q-278 0 -435 146.5t-157 414.5q0 114 21 215t67 248h279q-86 -230 -86 -387q0 -162 86 -239t268 -77q175 0 303 64q58 27 103 63l-29 4
q-110 17 -205 47l16 312q174 -49 363 -49q95 0 133.5 42.5t38.5 141.5q0 107 -61 487zM1567 1309h209l-64 -207h-262q-106 0 -217 -35v201q76 25 113 32l-3 3q-40 40 -40 110q0 93 65 154t170 61q69 0 156 -43v-184q-79 29 -142 29q-39 0 -62.5 -16.5t-23.5 -45.5
q0 -35 31 -47q27 -9 70 -12z" />
    <glyph glyph-name="uniFC04" unicode="&#xfc04;" horiz-adv-x="1820" arabic-form="isolated" 
d="M1346 993h305q61 -396 61 -573q0 -206 -123 -314q-85 -73 -213 -96q-45 -91 -102 -170q-106 -145 -261.5 -212.5t-371.5 -67.5q-278 0 -435 146.5t-157 414.5q0 114 21 215t67 248h279q-86 -230 -86 -387q0 -162 86 -239t268 -77q175 0 303 64q58 27 103 63l-29 4
q-110 17 -205 47l16 312q174 -49 363 -49q95 0 133.5 42.5t38.5 141.5q0 107 -61 487zM1567 1309h209l-64 -207h-262q-106 0 -217 -35v201q76 25 113 32l-3 3q-40 40 -40 110q0 93 65 154t170 61q69 0 156 -43v-184q-79 29 -142 29q-39 0 -62.5 -16.5t-23.5 -45.5
q0 -35 31 -47q27 -9 70 -12zM481 -750l207 207l148 -141l143 141l209 -207l-205 -206l-147 143l-144 -143z" />
    <glyph glyph-name="uniFC08" unicode="&#xfc08;" horiz-adv-x="1187" arabic-form="isolated" 
d="M803 1090h20l195 -181q-83 -89 -117.5 -153t-34.5 -135q0 -91 64 -169t209 -173h-2l-160 -283q-105 15 -205 70q-85 52 -127 96q-27 8 -43 10q-55 10 -94 10q-79 0 -116.5 -50.5t-37.5 -158.5q0 -167 62 -536h-305q-62 394 -62 565q0 220 118.5 356t319.5 136q48 0 99 -7
l22 -4q-47 92 -47 195q0 109 63 217t179 195zM524 -317l207 206l209 -206l-207 -207z" />
    <glyph glyph-name="uniFC09" unicode="&#xfc09;" horiz-adv-x="1826" arabic-form="isolated" 
d="M1346 993h305q61 -396 61 -573q0 -206 -123 -314q-85 -73 -213 -96q-45 -91 -102 -170q-106 -145 -261.5 -212.5t-371.5 -67.5q-278 0 -435 146.5t-157 414.5q0 114 21 215t67 248h279q-86 -230 -86 -387q0 -162 86 -239t268 -77q175 0 303 64q58 27 103 63l-29 4
q-110 17 -205 47l16 312q174 -49 363 -49q95 0 133.5 42.5t38.5 141.5q0 107 -61 487zM1321 -317l207 206l209 -206l-207 -207z" />
    <glyph glyph-name="uniFC0A" unicode="&#xfc0a;" horiz-adv-x="1826" arabic-form="isolated" 
d="M1346 993h305q61 -396 61 -573q0 -206 -123 -314q-85 -73 -213 -96q-45 -91 -102 -170q-106 -145 -261.5 -212.5t-371.5 -67.5q-278 0 -435 146.5t-157 414.5q0 114 21 215t67 248h279q-86 -230 -86 -387q0 -162 86 -239t268 -77q175 0 303 64q58 27 103 63l-29 4
q-110 17 -205 47l16 312q174 -49 363 -49q95 0 133.5 42.5t38.5 141.5q0 107 -61 487zM1321 -317l207 206l209 -206l-207 -207zM481 -750l207 207l148 -141l143 141l209 -207l-205 -206l-147 143l-144 -143z" />
    <glyph glyph-name="uniFC0E" unicode="&#xfc0e;" horiz-adv-x="1187" arabic-form="isolated" 
d="M803 1090h20l195 -181q-83 -89 -117.5 -153t-34.5 -135q0 -91 64 -169t209 -173h-2l-160 -283q-105 15 -205 70q-85 52 -127 96q-27 8 -43 10q-55 10 -94 10q-79 0 -116.5 -50.5t-37.5 -158.5q0 -167 62 -536h-305q-62 394 -62 565q0 220 118.5 356t319.5 136q48 0 99 -7
l22 -4q-47 92 -47 195q0 109 63 217t179 195zM451 1386l204 207l158 -153l156 153l209 -207l-205 -204l-158 151l-156 -151z" />
    <glyph glyph-name="uniFC0F" unicode="&#xfc0f;" horiz-adv-x="1896" arabic-form="isolated" 
d="M1346 993h305q61 -396 61 -573q0 -206 -123 -314q-85 -73 -213 -96q-45 -91 -102 -170q-106 -145 -261.5 -212.5t-371.5 -67.5q-278 0 -435 146.5t-157 414.5q0 114 21 215t67 248h279q-86 -230 -86 -387q0 -162 86 -239t268 -77q175 0 303 64q58 27 103 63l-29 4
q-110 17 -205 47l16 312q174 -49 363 -49q95 0 133.5 42.5t38.5 141.5q0 107 -61 487zM1135 1339l204 207l158 -153l156 153l209 -207l-205 -204l-158 151l-156 -151z" />
    <glyph glyph-name="uniFC10" unicode="&#xfc10;" horiz-adv-x="1896" arabic-form="isolated" 
d="M1346 993h305q61 -396 61 -573q0 -206 -123 -314q-85 -73 -213 -96q-45 -91 -102 -170q-106 -145 -261.5 -212.5t-371.5 -67.5q-278 0 -435 146.5t-157 414.5q0 114 21 215t67 248h279q-86 -230 -86 -387q0 -162 86 -239t268 -77q175 0 303 64q58 27 103 63l-29 4
q-110 17 -205 47l16 312q174 -49 363 -49q95 0 133.5 42.5t38.5 141.5q0 107 -61 487zM1135 1339l204 207l158 -153l156 153l209 -207l-205 -204l-158 151l-156 -151zM481 -750l207 207l148 -141l143 141l209 -207l-205 -206l-147 143l-144 -143z" />
    <glyph glyph-name="uniFC12" unicode="&#xfc12;" horiz-adv-x="1187" arabic-form="isolated" 
d="M803 1090h20l195 -181q-83 -89 -117.5 -153t-34.5 -135q0 -91 64 -169t209 -173h-2l-160 -283q-105 15 -205 70q-85 52 -127 96q-27 8 -43 10q-55 10 -94 10q-79 0 -116.5 -50.5t-37.5 -158.5q0 -167 62 -536h-305q-62 394 -62 565q0 220 118.5 356t319.5 136q48 0 99 -7
l22 -4q-47 92 -47 195q0 109 63 217t179 195zM461 1397l205 209l161 -162l162 162l207 -209l-205 -207l-164 160l-159 -160zM686 1683l141 144l146 -144l-144 -143z" />
    <glyph glyph-name="uniFC13" unicode="&#xfc13;" horiz-adv-x="1906" arabic-form="isolated" 
d="M1346 993h305q61 -396 61 -573q0 -206 -123 -314q-85 -73 -213 -96q-45 -91 -102 -170q-106 -145 -261.5 -212.5t-371.5 -67.5q-278 0 -435 146.5t-157 414.5q0 114 21 215t67 248h279q-86 -230 -86 -387q0 -162 86 -239t268 -77q175 0 303 64q58 27 103 63l-29 4
q-110 17 -205 47l16 312q174 -49 363 -49q95 0 133.5 42.5t38.5 141.5q0 107 -61 487zM1135 1309l204 209l162 -162l162 162l207 -209l-205 -207l-164 160l-160 -160zM1360 1595l141 144l146 -144l-144 -143z" />
    <glyph glyph-name="uniFC14" unicode="&#xfc14;" horiz-adv-x="1906" arabic-form="isolated" 
d="M1346 993h305q61 -396 61 -573q0 -206 -123 -314q-85 -73 -213 -96q-45 -91 -102 -170q-106 -145 -261.5 -212.5t-371.5 -67.5q-278 0 -435 146.5t-157 414.5q0 114 21 215t67 248h279q-86 -230 -86 -387q0 -162 86 -239t268 -77q175 0 303 64q58 27 103 63l-29 4
q-110 17 -205 47l16 312q174 -49 363 -49q95 0 133.5 42.5t38.5 141.5q0 107 -61 487zM1135 1309l204 209l162 -162l162 162l207 -209l-205 -207l-164 160l-160 -160zM1360 1595l141 144l146 -144l-144 -143zM481 -750l207 207l148 -141l143 141l209 -207l-205 -206
l-147 143l-144 -143z" />
    <glyph glyph-name="uniFC31" unicode="&#xfc31;" horiz-adv-x="1816" arabic-form="isolated" 
d="M1268 1251q202 0 328 -123t139 -352q12 -212 10 -330q-5 -158 -93.5 -271t-271.5 -152q-109 -240 -286 -351.5t-453 -111.5q-278 0 -435 146.5t-157 414.5q0 114 21 215t67 248h279q-86 -230 -86 -387q0 -162 86 -239t268 -77q255 0 403 133q-129 15 -253 47l18 258
q171 -49 334 -49q122 0 187 33.5t75 116.5q-96 -41 -201 -41q-194 0 -308 113t-114 299q0 203 124.5 331.5t318.5 128.5zM1255 948q-66 0 -108 -42.5t-43 -114.5q-4 -77 43.5 -125t126.5 -48q86 0 166 25l-8 111q-7 96 -54 145t-123 49zM1057 1550l207 207l209 -207
l-207 -207z" />
    <glyph glyph-name="uniFC32" unicode="&#xfc32;" horiz-adv-x="1816" arabic-form="isolated" 
d="M1268 1251q202 0 328 -123t139 -352q12 -212 10 -330q-5 -158 -93.5 -271t-271.5 -152q-109 -240 -286 -351.5t-453 -111.5q-278 0 -435 146.5t-157 414.5q0 114 21 215t67 248h279q-86 -230 -86 -387q0 -162 86 -239t268 -77q255 0 403 133q-129 15 -253 47l18 258
q171 -49 334 -49q122 0 187 33.5t75 116.5q-96 -41 -201 -41q-194 0 -308 113t-114 299q0 203 124.5 331.5t318.5 128.5zM1255 948q-66 0 -108 -42.5t-43 -114.5q-4 -77 43.5 -125t126.5 -48q86 0 166 25l-8 111q-7 96 -54 145t-123 49zM1049 1550l206 207l209 -207
l-207 -207zM432 -750l207 207l147 -141l144 141l209 -207l-205 -206l-148 143l-143 -143z" />
    <glyph glyph-name="uniFC35" unicode="&#xfc35;" horiz-adv-x="1816" arabic-form="isolated" 
d="M1268 1251q202 0 328 -123t139 -352q12 -212 10 -330q-5 -158 -93.5 -271t-271.5 -152q-109 -240 -286 -351.5t-453 -111.5q-278 0 -435 146.5t-157 414.5q0 114 21 215t67 248h279q-86 -230 -86 -387q0 -162 86 -239t268 -77q255 0 403 133q-129 15 -253 47l18 258
q171 -49 334 -49q122 0 187 33.5t75 116.5q-96 -41 -201 -41q-194 0 -308 113t-114 299q0 203 124.5 331.5t318.5 128.5zM1255 948q-66 0 -108 -42.5t-43 -114.5q-4 -77 43.5 -125t126.5 -48q86 0 166 25l-8 111q-7 96 -54 145t-123 49zM913 1552l205 207l158 -153l156 153
l208 -207l-204 -204l-158 151l-156 -151z" />
    <glyph glyph-name="uniFC36" unicode="&#xfc36;" horiz-adv-x="1816" arabic-form="isolated" 
d="M1268 1251q202 0 328 -123t139 -352q12 -212 10 -330q-5 -158 -93.5 -271t-271.5 -152q-109 -240 -286 -351.5t-453 -111.5q-278 0 -435 146.5t-157 414.5q0 114 21 215t67 248h279q-86 -230 -86 -387q0 -162 86 -239t268 -77q255 0 403 133q-129 15 -253 47l18 258
q171 -49 334 -49q122 0 187 33.5t75 116.5q-96 -41 -201 -41q-194 0 -308 113t-114 299q0 203 124.5 331.5t318.5 128.5zM1255 948q-66 0 -108 -42.5t-43 -114.5q-4 -77 43.5 -125t126.5 -48q86 0 166 25l-8 111q-7 96 -54 145t-123 49zM913 1552l205 207l158 -153l156 153
l208 -207l-204 -204l-158 151l-156 -151zM461 -750l207 207l147 -141l143 141l209 -207l-204 -206l-148 143l-143 -143z" />
    <glyph glyph-name="uniFC3D" unicode="&#xfc3d;" horiz-adv-x="2992" arabic-form="isolated" 
d="M2511 1628h436v-12l-700 -572l327 -139q187 -78 276 -189.5t89 -269.5q0 -211 -141.5 -328.5t-397.5 -117.5h-526h-4h-6q-232 0 -363 113t-131 323q0 62 10 160q10 79 21 143q-125 -9 -203 -32q-126 -34 -187 -88.5t-61 -108.5q0 -36 27.5 -67.5t97.5 -80.5l66 -47
q101 -71 150.5 -148t49.5 -173q0 -195 -176.5 -314.5t-478.5 -119.5q-314 0 -475.5 142t-161.5 419q0 114 21 215t67 248h279q-86 -230 -86 -387q0 -168 100 -243t328 -75q132 0 211.5 31.5t79.5 81.5t-125 139l-105 80q-81 61 -120.5 130.5t-39.5 158.5q0 66 24.5 131.5
t82 131.5t142 120t214.5 95t289 58l301 -186q-51 -229 -51 -324q0 -98 54.5 -151t154.5 -53h4h543q95 0 155 33t60 89q0 54 -49 99t-158 92l-524 231v211z" />
    <glyph glyph-name="uniFC3E" unicode="&#xfc3e;" horiz-adv-x="2992" arabic-form="isolated" 
d="M2511 1628h436v-12l-700 -572l327 -139q187 -78 276 -189.5t89 -269.5q0 -211 -141.5 -328.5t-397.5 -117.5h-526h-4h-6q-232 0 -363 113t-131 323q0 62 10 160q10 79 21 143q-125 -9 -203 -32q-126 -34 -187 -88.5t-61 -108.5q0 -36 27.5 -67.5t97.5 -80.5l66 -47
q101 -71 150.5 -148t49.5 -173q0 -195 -176.5 -314.5t-478.5 -119.5q-314 0 -475.5 142t-161.5 419q0 114 21 215t67 248h279q-86 -230 -86 -387q0 -168 100 -243t328 -75q132 0 211.5 31.5t79.5 81.5t-125 139l-105 80q-81 61 -120.5 130.5t-39.5 158.5q0 66 24.5 131.5
t82 131.5t142 120t214.5 95t289 58l301 -186q-51 -229 -51 -324q0 -98 54.5 -151t154.5 -53h4h543q95 0 155 33t60 89q0 54 -49 99t-158 92l-524 231v211zM481 -750l207 207l148 -141l143 141l209 -207l-205 -206l-147 143l-144 -143z" />
    <glyph glyph-name="uniFC42" unicode="&#xfc42;" horiz-adv-x="1130" arabic-form="isolated" 
d="M582 1485h305v-1045l59 -30q51 -30 209 -131l-160 -283q-104 14 -204 70q-85 52 -127 96q-27 8 -43 10q-55 10 -95 10q-78 0 -115.5 -50.5t-37.5 -158.5q0 -173 61 -536h-305q-61 387 -61 565q0 220 118.5 356t319.5 136q45 0 92 -7q-9 45 -12 95q-4 74 -4 100v803z" />
    <glyph glyph-name="uniFC44" unicode="&#xfc44;" horiz-adv-x="1824" arabic-form="isolated" 
d="M1368 1485h305v-1065q0 -199 -121 -311q-68 -62 -172 -89q-47 -102 -106 -180q-106 -145 -261.5 -212.5t-371.5 -67.5q-278 0 -435 146.5t-157 414.5q0 114 21 215t67 248h279q-86 -230 -86 -387q0 -162 86 -239t268 -77q175 0 303 64q55 27 98 61l-45 6q-95 19 -184 47
l16 312q174 -49 324 -49q95 0 133.5 42.5t38.5 141.5v979zM387 -727l207 207l147 -142l144 142l209 -207l-205 -207l-148 143l-143 -143z" />
    <glyph glyph-name="uniFC4E" unicode="&#xfc4e;" horiz-adv-x="1187" arabic-form="isolated" 
d="M803 1090h20l195 -181q-83 -89 -117.5 -153t-34.5 -135q0 -91 64 -169t209 -173h-2l-160 -283q-105 15 -205 70q-85 52 -127 96q-27 8 -43 10q-55 10 -94 10q-79 0 -116.5 -50.5t-37.5 -158.5q0 -167 62 -536h-305q-62 394 -62 565q0 220 118.5 356t319.5 136q48 0 99 -7
l22 -4q-47 92 -47 195q0 109 63 217t179 195zM612 1415l207 207l209 -207l-207 -207z" />
    <glyph glyph-name="uniFC4F" unicode="&#xfc4f;" horiz-adv-x="1802" arabic-form="isolated" 
d="M1346 993h305q61 -396 61 -573q0 -206 -123 -314q-85 -73 -213 -96q-45 -91 -102 -170q-106 -145 -261.5 -212.5t-371.5 -67.5q-278 0 -435 146.5t-157 414.5q0 114 21 215t67 248h279q-86 -230 -86 -387q0 -162 86 -239t268 -77q175 0 303 64q58 27 103 63l-29 4
q-110 17 -205 47l16 312q174 -49 363 -49q95 0 133.5 42.5t38.5 141.5q0 107 -61 487zM1272 1329l207 207l209 -207l-207 -207z" />
    <glyph glyph-name="uniFC50" unicode="&#xfc50;" horiz-adv-x="1802" arabic-form="isolated" 
d="M1346 993h305q61 -396 61 -573q0 -206 -123 -314q-85 -73 -213 -96q-45 -91 -102 -170q-106 -145 -261.5 -212.5t-371.5 -67.5q-278 0 -435 146.5t-157 414.5q0 114 21 215t67 248h279q-86 -230 -86 -387q0 -162 86 -239t268 -77q175 0 303 64q58 27 103 63l-29 4
q-110 17 -205 47l16 312q174 -49 363 -49q95 0 133.5 42.5t38.5 141.5q0 107 -61 487zM1272 1329l207 207l209 -207l-207 -207zM481 -750l207 207l148 -141l143 141l209 -207l-205 -206l-147 143l-144 -143z" />
    <glyph glyph-name="uniFC58" unicode="&#xfc58;" horiz-adv-x="1187" arabic-form="isolated" 
d="M803 1090h20l195 -181q-83 -89 -117.5 -153t-34.5 -135q0 -91 64 -169t209 -173h-2l-160 -283q-105 15 -205 70q-85 52 -127 96q-27 8 -43 10q-55 10 -94 10q-79 0 -116.5 -50.5t-37.5 -158.5q0 -167 62 -536h-305q-62 394 -62 565q0 220 118.5 356t319.5 136q48 0 99 -7
l22 -4q-47 92 -47 195q0 109 63 217t179 195zM455 -311l207 207l147 -142l143 142l209 -207l-205 -207l-147 143l-143 -143z" />
    <glyph glyph-name="uniFC64" unicode="&#xfc64;" horiz-adv-x="1282" arabic-form="final" 
d="M926 952l241 -141q-45 -167 -45 -297q2 -90 42 -141t116 -51q20 0 20 -21v-278q0 -23 -20 -23q-223 0 -326.5 92t-103.5 289q0 85 6 149l12 97q-82 -40 -139 -62q-82 -31 -192 -57q4 -50 14 -205q8 -101 8 -258q0 -485 -569 -485v260q117 0 195.5 60.5t78.5 180.5
q0 137 -11.5 269t-45.5 403l20 25q377 35 699 194zM1020 1319h209l-64 -207h-262q-106 0 -217 -35v201q84 27 113 33l-2 2q-41 41 -41 110q0 93 65 154t170 61q69 0 156 -43v-184q-79 29 -141 29q-39 0 -62.5 -16.5t-23.5 -45.5q0 -35 30 -47q27 -9 70 -12z" />
    <glyph glyph-name="uniFC65" unicode="&#xfc65;" horiz-adv-x="1282" arabic-form="final" 
d="M926 952l241 -141q-45 -167 -45 -297q2 -90 42 -141t116 -51q20 0 20 -21v-278q0 -23 -20 -23q-223 0 -326.5 92t-103.5 289q0 85 6 149l12 97q-82 -40 -139 -62q-82 -31 -192 -57q4 -50 14 -205q8 -101 8 -258q0 -485 -569 -485v260q117 0 195.5 60.5t78.5 180.5
q0 137 -11.5 269t-45.5 403l20 25q377 35 699 194zM74 1149l207 207l208 -207l-206 -207zM1038 1319h209l-63 -207h-262q-106 0 -217 -35v201q85 28 112 33l-2 2q-41 41 -41 110q0 93 65.5 154t170.5 61q68 0 155 -43v-184q-79 29 -141 29q-39 0 -62.5 -16.5t-23.5 -45.5
q0 -35 31 -47q27 -9 69 -12z" />
    <glyph glyph-name="uniFC67" unicode="&#xfc67;" horiz-adv-x="1978" arabic-form="final" 
d="M1622 952l244 -141q-48 -177 -45 -297q0 -90 40 -141t117 -51q21 0 21 -21v-278q0 -23 -21 -23q-229 0 -330.5 90t-101.5 291q0 85 6 149l13 97q-38 -22 -41 -23q-70 -34 -191 -72l-102 -24l14 -146q6 -83 6 -167q0 -306 -159.5 -470.5t-470.5 -164.5q-276 0 -424 145
t-148 416q0 114 21 215t67 248h279q-86 -230 -86 -387q0 -147 74 -231.5t221 -84.5q323 0 323 344q0 110 -9.5 214t-35.5 294l21 25q384 36 698 194zM1731 1315h186l-64 -207h-262q-106 0 -217 -35v201l64 20q28 10 49 13l-2 2q-41 41 -41 110q0 93 65 154t170 61
q69 0 156 -43v-184q-79 29 -141 29q-39 0 -62.5 -16.5t-23.5 -45.5q0 -34 29.5 -46.5t93.5 -12.5zM416 1006l207 206l208 -206l-206 -207z" />
    <glyph glyph-name="uniFC68" unicode="&#xfc68;" horiz-adv-x="1873" arabic-form="final" 
d="M1411 1036l303 -166q-53 -223 -53 -344q0 -204 211 -204q20 0 20 -21v-278q0 -23 -20 -23q-237 0 -369.5 113.5t-132.5 322.5q0 62 10 160q10 79 21 143q-125 -9 -203 -32q-126 -34 -187 -88.5t-61 -108.5q0 -36 27.5 -67.5t97.5 -80.5l66 -47q101 -71 150.5 -148
t49.5 -173q0 -195 -176.5 -314.5t-478.5 -119.5q-314 0 -475.5 142t-161.5 419q0 114 21 215t67 248h279q-86 -230 -86 -387q0 -168 100 -243t328 -75q132 0 211.5 31.5t79.5 81.5t-125 139l-105 80q-81 61 -120.5 130.5t-39.5 158.5q0 66 24.5 131.5t82 131.5t142 120
t214.5 95t289 58zM1470 1386h209l-63 -206h-262q-106 0 -217 -35v201q78 25 112 32l-2 2q-41 41 -41 111q0 93 65.5 154t170.5 61q68 0 155 -43v-184q-77 28 -141 28q-39 0 -62.5 -16t-23.5 -45q0 -35 31 -47q31 -10 69 -13z" />
    <glyph glyph-name="uniFC69" unicode="&#xfc69;" horiz-adv-x="1873" arabic-form="final" 
d="M1411 1036l303 -166q-53 -223 -53 -344q0 -204 211 -204q20 0 20 -21v-278q0 -23 -20 -23q-237 0 -369.5 113.5t-132.5 322.5q0 62 10 160q10 79 21 143q-125 -9 -203 -32q-126 -34 -187 -88.5t-61 -108.5q0 -36 27.5 -67.5t97.5 -80.5l66 -47q101 -71 150.5 -148
t49.5 -173q0 -195 -176.5 -314.5t-478.5 -119.5q-314 0 -475.5 142t-161.5 419q0 114 21 215t67 248h279q-86 -230 -86 -387q0 -168 100 -243t328 -75q132 0 211.5 31.5t79.5 81.5t-125 139l-105 80q-81 61 -120.5 130.5t-39.5 158.5q0 66 24.5 131.5t82 131.5t142 120
t214.5 95t289 58zM1470 1386h209l-63 -206h-262q-106 0 -217 -35v201q78 25 112 32l-2 2q-41 41 -41 111q0 93 65.5 154t170.5 61q68 0 155 -43v-184q-77 28 -141 28q-39 0 -62.5 -16t-23.5 -45q0 -35 31 -47q31 -10 69 -13zM481 -750l207 207l148 -141l143 141l209 -207
l-205 -206l-147 143l-144 -143z" />
    <glyph glyph-name="uniFC6A" unicode="&#xfc6a;" horiz-adv-x="1282" arabic-form="final" 
d="M926 952l241 -141q-45 -167 -45 -297q2 -90 42 -141t116 -51q20 0 20 -21v-278q0 -23 -20 -23q-223 0 -326.5 92t-103.5 289q0 85 6 149l12 97q-82 -40 -139 -62q-82 -31 -192 -57q4 -50 14 -205q8 -101 8 -258q0 -485 -569 -485v260q117 0 195.5 60.5t78.5 180.5
q0 137 -11.5 269t-45.5 403l20 25q377 35 699 194zM633 -317l207 206l209 -206l-207 -207z" />
    <glyph glyph-name="uniFC6B" unicode="&#xfc6b;" horiz-adv-x="1282" arabic-form="final" 
d="M926 952l241 -141q-45 -167 -45 -297q2 -90 42 -141t116 -51q20 0 20 -21v-278q0 -23 -20 -23q-223 0 -326.5 92t-103.5 289q0 85 6 149l12 97q-82 -40 -139 -62q-82 -31 -192 -57q4 -50 14 -205q8 -101 8 -258q0 -485 -569 -485v260q117 0 195.5 60.5t78.5 180.5
q0 137 -11.5 269t-45.5 403l20 25q377 35 699 194zM74 1149l207 207l208 -207l-206 -207zM633 -317l207 206l209 -206l-207 -207z" />
    <glyph glyph-name="uniFC6D" unicode="&#xfc6d;" horiz-adv-x="1978" arabic-form="final" 
d="M1622 952l244 -141q-48 -177 -45 -297q0 -90 40 -141t117 -51q21 0 21 -21v-278q0 -23 -21 -23q-229 0 -330.5 90t-101.5 291q0 85 6 149l13 97q-38 -22 -41 -23q-70 -34 -191 -72l-102 -24l14 -146q6 -83 6 -167q0 -306 -159.5 -470.5t-470.5 -164.5q-276 0 -424 145
t-148 416q0 114 21 215t67 248h279q-86 -230 -86 -387q0 -147 74 -231.5t221 -84.5q323 0 323 344q0 110 -9.5 214t-35.5 294l21 25q384 36 698 194zM1284 -317l207 206l209 -206l-207 -207zM416 1006l207 206l208 -206l-206 -207z" />
    <glyph glyph-name="uniFC6E" unicode="&#xfc6e;" horiz-adv-x="1873" arabic-form="final" 
d="M1411 1036l303 -166q-53 -223 -53 -344q0 -204 211 -204q20 0 20 -21v-278q0 -23 -20 -23q-237 0 -369.5 113.5t-132.5 322.5q0 62 10 160q10 79 21 143q-125 -9 -203 -32q-126 -34 -187 -88.5t-61 -108.5q0 -36 27.5 -67.5t97.5 -80.5l66 -47q101 -71 150.5 -148
t49.5 -173q0 -195 -176.5 -314.5t-478.5 -119.5q-314 0 -475.5 142t-161.5 419q0 114 21 215t67 248h279q-86 -230 -86 -387q0 -168 100 -243t328 -75q132 0 211.5 31.5t79.5 81.5t-125 139l-105 80q-81 61 -120.5 130.5t-39.5 158.5q0 66 24.5 131.5t82 131.5t142 120
t214.5 95t289 58zM1397 -317l207 206l208 -206l-206 -207z" />
    <glyph glyph-name="uniFC6F" unicode="&#xfc6f;" horiz-adv-x="1873" arabic-form="final" 
d="M1411 1036l303 -166q-53 -223 -53 -344q0 -204 211 -204q20 0 20 -21v-278q0 -23 -20 -23q-237 0 -369.5 113.5t-132.5 322.5q0 62 10 160q10 79 21 143q-125 -9 -203 -32q-126 -34 -187 -88.5t-61 -108.5q0 -36 27.5 -67.5t97.5 -80.5l66 -47q101 -71 150.5 -148
t49.5 -173q0 -195 -176.5 -314.5t-478.5 -119.5q-314 0 -475.5 142t-161.5 419q0 114 21 215t67 248h279q-86 -230 -86 -387q0 -168 100 -243t328 -75q132 0 211.5 31.5t79.5 81.5t-125 139l-105 80q-81 61 -120.5 130.5t-39.5 158.5q0 66 24.5 131.5t82 131.5t142 120
t214.5 95t289 58zM1397 -317l207 206l208 -206l-206 -207zM481 -750l207 207l148 -141l143 141l209 -207l-205 -206l-147 143l-144 -143z" />
    <glyph glyph-name="uniFC70" unicode="&#xfc70;" horiz-adv-x="1282" arabic-form="final" 
d="M926 952l241 -141q-45 -167 -45 -297q2 -90 42 -141t116 -51q20 0 20 -21v-278q0 -23 -20 -23q-223 0 -326.5 92t-103.5 289q0 85 6 149l12 97q-82 -40 -139 -62q-82 -31 -192 -57q4 -50 14 -205q8 -101 8 -258q0 -485 -569 -485v260q117 0 195.5 60.5t78.5 180.5
q0 137 -11.5 269t-45.5 403l20 25q377 35 699 194zM543 1317l205 207l157 -154l156 154l209 -207l-205 -205l-158 152l-155 -152z" />
    <glyph glyph-name="uniFC71" unicode="&#xfc71;" horiz-adv-x="1282" arabic-form="final" 
d="M926 952l241 -141q-45 -167 -45 -297q2 -90 42 -141t116 -51q20 0 20 -21v-278q0 -23 -20 -23q-223 0 -326.5 92t-103.5 289q0 85 6 149l12 97q-82 -40 -139 -62q-82 -31 -192 -57q4 -50 14 -205q8 -101 8 -258q0 -485 -569 -485v260q117 0 195.5 60.5t78.5 180.5
q0 137 -11.5 269t-45.5 403l20 25q377 35 699 194zM74 1149l207 207l208 -207l-206 -207zM571 1317l205 207l158 -154l156 154l208 -207l-204 -205l-158 152l-156 -152z" />
    <glyph glyph-name="uniFC73" unicode="&#xfc73;" horiz-adv-x="1978" arabic-form="final" 
d="M1622 952l244 -141q-48 -177 -45 -297q0 -90 40 -141t117 -51q21 0 21 -21v-278q0 -23 -21 -23q-229 0 -330.5 90t-101.5 291q0 85 6 149l13 97q-38 -22 -41 -23q-70 -34 -191 -72l-102 -24l14 -146q6 -83 6 -167q0 -306 -159.5 -470.5t-470.5 -164.5q-276 0 -424 145
t-148 416q0 114 21 215t67 248h279q-86 -230 -86 -387q0 -147 74 -231.5t221 -84.5q323 0 323 344q0 110 -9.5 214t-35.5 294l21 25q384 36 698 194zM1239 1319l205 207l158 -154l155 154l209 -207l-205 -205l-157 152l-156 -152zM416 1006l207 206l208 -206l-206 -207z" />
    <glyph glyph-name="uniFC74" unicode="&#xfc74;" horiz-adv-x="1873" arabic-form="final" 
d="M1411 1036l303 -166q-53 -223 -53 -344q0 -204 211 -204q20 0 20 -21v-278q0 -23 -20 -23q-237 0 -369.5 113.5t-132.5 322.5q0 62 10 160q10 79 21 143q-125 -9 -203 -32q-126 -34 -187 -88.5t-61 -108.5q0 -36 27.5 -67.5t97.5 -80.5l66 -47q101 -71 150.5 -148
t49.5 -173q0 -195 -176.5 -314.5t-478.5 -119.5q-314 0 -475.5 142t-161.5 419q0 114 21 215t67 248h279q-86 -230 -86 -387q0 -168 100 -243t328 -75q132 0 211.5 31.5t79.5 81.5t-125 139l-105 80q-81 61 -120.5 130.5t-39.5 158.5q0 66 24.5 131.5t82 131.5t142 120
t214.5 95t289 58zM1010 1362l204 207l158 -154l156 154l209 -207l-205 -205l-158 152l-155 -152z" />
    <glyph glyph-name="uniFC75" unicode="&#xfc75;" horiz-adv-x="1873" arabic-form="final" 
d="M1411 1036l303 -166q-53 -223 -53 -344q0 -204 211 -204q20 0 20 -21v-278q0 -23 -20 -23q-237 0 -369.5 113.5t-132.5 322.5q0 62 10 160q10 79 21 143q-125 -9 -203 -32q-126 -34 -187 -88.5t-61 -108.5q0 -36 27.5 -67.5t97.5 -80.5l66 -47q101 -71 150.5 -148
t49.5 -173q0 -195 -176.5 -314.5t-478.5 -119.5q-314 0 -475.5 142t-161.5 419q0 114 21 215t67 248h279q-86 -230 -86 -387q0 -168 100 -243t328 -75q132 0 211.5 31.5t79.5 81.5t-125 139l-105 80q-81 61 -120.5 130.5t-39.5 158.5q0 66 24.5 131.5t82 131.5t142 120
t214.5 95t289 58zM1010 1362l204 207l158 -154l156 154l209 -207l-205 -205l-158 152l-155 -152zM483 -750l207 207l148 -141l143 141l209 -207l-205 -206l-147 143l-144 -143z" />
    <glyph glyph-name="uniFC76" unicode="&#xfc76;" horiz-adv-x="1282" arabic-form="final" 
d="M926 952l241 -141q-45 -167 -45 -297q2 -90 42 -141t116 -51q20 0 20 -21v-278q0 -23 -20 -23q-223 0 -326.5 92t-103.5 289q0 85 6 149l12 97q-82 -40 -139 -62q-82 -31 -192 -57q4 -50 14 -205q8 -101 8 -258q0 -485 -569 -485v260q117 0 195.5 60.5t78.5 180.5
q0 137 -11.5 269t-45.5 403l20 25q377 35 699 194zM549 1307l205 209l161 -162l162 162l207 -209l-205 -207l-164 160l-159 -160zM774 1593l141 144l146 -144l-143 -143z" />
    <glyph glyph-name="uniFC77" unicode="&#xfc77;" horiz-adv-x="1282" arabic-form="final" 
d="M926 952l241 -141q-45 -167 -45 -297q2 -90 42 -141t116 -51q20 0 20 -21v-278q0 -23 -20 -23q-223 0 -326.5 92t-103.5 289q0 85 6 149l12 97q-82 -40 -139 -62q-82 -31 -192 -57q4 -50 14 -205q8 -101 8 -258q0 -485 -569 -485v260q117 0 195.5 60.5t78.5 180.5
q0 137 -11.5 269t-45.5 403l20 25q377 35 699 194zM74 1149l207 207l208 -207l-206 -207zM602 1307l205 209l162 -162l161 162l207 -209l-204 -207l-164 160l-160 -160zM827 1593l142 144l145 -144l-143 -143z" />
    <glyph glyph-name="uniFC79" unicode="&#xfc79;" horiz-adv-x="1978" arabic-form="final" 
d="M1622 952l244 -141q-48 -177 -45 -297q0 -90 40 -141t117 -51q21 0 21 -21v-278q0 -23 -21 -23q-229 0 -330.5 90t-101.5 291q0 85 6 149l13 97q-38 -22 -41 -23q-70 -34 -191 -72l-102 -24l14 -146q6 -83 6 -167q0 -306 -159.5 -470.5t-470.5 -164.5q-276 0 -424 145
t-148 416q0 114 21 215t67 248h279q-86 -230 -86 -387q0 -147 74 -231.5t221 -84.5q323 0 323 344q0 110 -9.5 214t-35.5 294l21 25q384 36 698 194zM1239 1309l205 209l162 -162l161 162l207 -209l-205 -207l-163 160l-160 -160zM416 1006l207 206l208 -206l-206 -207z
M1464 1595l142 144l145 -144l-143 -143z" />
    <glyph glyph-name="uniFC7A" unicode="&#xfc7a;" horiz-adv-x="1873" arabic-form="final" 
d="M1411 1036l303 -166q-53 -223 -53 -344q0 -204 211 -204q20 0 20 -21v-278q0 -23 -20 -23q-237 0 -369.5 113.5t-132.5 322.5q0 62 10 160q10 79 21 143q-125 -9 -203 -32q-126 -34 -187 -88.5t-61 -108.5q0 -36 27.5 -67.5t97.5 -80.5l66 -47q101 -71 150.5 -148
t49.5 -173q0 -195 -176.5 -314.5t-478.5 -119.5q-314 0 -475.5 142t-161.5 419q0 114 21 215t67 248h279q-86 -230 -86 -387q0 -168 100 -243t328 -75q132 0 211.5 31.5t79.5 81.5t-125 139l-105 80q-81 61 -120.5 130.5t-39.5 158.5q0 66 24.5 131.5t82 131.5t142 120
t214.5 95t289 58zM1016 1337l205 209l161 -162l162 162l207 -209l-205 -207l-164 160l-159 -160zM1241 1624l141 143l146 -143l-144 -143z" />
    <glyph glyph-name="uniFC7B" unicode="&#xfc7b;" horiz-adv-x="1873" arabic-form="final" 
d="M1411 1036l303 -166q-53 -223 -53 -344q0 -204 211 -204q20 0 20 -21v-278q0 -23 -20 -23q-237 0 -369.5 113.5t-132.5 322.5q0 62 10 160q10 79 21 143q-125 -9 -203 -32q-126 -34 -187 -88.5t-61 -108.5q0 -36 27.5 -67.5t97.5 -80.5l66 -47q101 -71 150.5 -148
t49.5 -173q0 -195 -176.5 -314.5t-478.5 -119.5q-314 0 -475.5 142t-161.5 419q0 114 21 215t67 248h279q-86 -230 -86 -387q0 -168 100 -243t328 -75q132 0 211.5 31.5t79.5 81.5t-125 139l-105 80q-81 61 -120.5 130.5t-39.5 158.5q0 66 24.5 131.5t82 131.5t142 120
t214.5 95t289 58zM1016 1337l205 209l161 -162l162 162l207 -209l-205 -207l-164 160l-159 -160zM1241 1624l141 143l146 -143l-144 -143zM481 -750l207 207l148 -141l143 141l209 -207l-205 -206l-147 143l-144 -143z" />
    <glyph glyph-name="uniFC83" unicode="&#xfc83;" horiz-adv-x="3162" arabic-form="final" 
d="M2511 1628h436v-12l-700 -572l327 -139q187 -78 276 -189.5t89 -269.5q0 -211 -141.5 -328.5t-397.5 -117.5h-526h-4h-6q-232 0 -363 113t-131 323q0 62 10 160q10 79 21 143q-125 -9 -203 -32q-126 -34 -187 -88.5t-61 -108.5q0 -36 27.5 -67.5t97.5 -80.5l66 -47
q101 -71 150.5 -148t49.5 -173q0 -195 -176.5 -314.5t-478.5 -119.5q-314 0 -475.5 142t-161.5 419q0 114 21 215t67 248h279q-86 -230 -86 -387q0 -168 100 -243t328 -75q132 0 211.5 31.5t79.5 81.5t-125 139l-105 80q-81 61 -120.5 130.5t-39.5 158.5q0 66 24.5 131.5
t82 131.5t142 120t214.5 95t289 58l301 -186q-51 -229 -51 -324q0 -98 54.5 -151t154.5 -53h4h543q95 0 155 33t60 89q0 54 -49 99t-158 92l-524 231v211zM2757 238l133 174q120 -90 272 -90q21 0 21 -21v-278q0 -23 -21 -23q-232 0 -405 238z" />
    <glyph glyph-name="uniFC84" unicode="&#xfc84;" horiz-adv-x="3162" arabic-form="final" 
d="M2511 1628h436v-12l-700 -572l327 -139q187 -78 276 -189.5t89 -269.5q0 -211 -141.5 -328.5t-397.5 -117.5h-526h-4h-6q-232 0 -363 113t-131 323q0 62 10 160q10 79 21 143q-125 -9 -203 -32q-126 -34 -187 -88.5t-61 -108.5q0 -36 27.5 -67.5t97.5 -80.5l66 -47
q101 -71 150.5 -148t49.5 -173q0 -195 -176.5 -314.5t-478.5 -119.5q-314 0 -475.5 142t-161.5 419q0 114 21 215t67 248h279q-86 -230 -86 -387q0 -168 100 -243t328 -75q132 0 211.5 31.5t79.5 81.5t-125 139l-105 80q-81 61 -120.5 130.5t-39.5 158.5q0 66 24.5 131.5
t82 131.5t142 120t214.5 95t289 58l301 -186q-51 -229 -51 -324q0 -98 54.5 -151t154.5 -53h4h543q95 0 155 33t60 89q0 54 -49 99t-158 92l-524 231v211zM2757 238l133 174q120 -90 272 -90q21 0 21 -21v-278q0 -23 -21 -23q-232 0 -405 238zM481 -750l207 207l148 -141
l143 141l209 -207l-205 -206l-147 143l-144 -143z" />
    <glyph glyph-name="uniFC87" unicode="&#xfc87;" horiz-adv-x="1859" arabic-form="final" 
d="M1378 1485h305l3 -979q0 -99 38.5 -141.5t133.5 -42.5q20 0 20 -21l2 -278q0 -23 -20 -23q-240 0 -361 109l-16 16l-21 -16q-51 -44 -67 -54q-55 -130 -121 -215q-106 -145 -261.5 -212.5t-371.5 -67.5q-278 0 -435 146.5t-157 414.5q0 114 21 215t67 248h279
q-86 -230 -86 -387q0 -162 86 -239t268 -77q175 0 303 64q55 27 98 61l-45 6q-95 19 -184 47l16 312q174 -49 324 -49q66 0 127 22q18 6 59 29q-2 14 -2 47zM481 -727l207 207l148 -142l143 142l209 -207l-205 -207l-147 143l-144 -143z" />
    <glyph glyph-name="uniFC8A" unicode="&#xfc8a;" horiz-adv-x="1282" arabic-form="final" 
d="M926 952l241 -141q-45 -167 -45 -297q2 -90 42 -141t116 -51q20 0 20 -21v-278q0 -23 -20 -23q-223 0 -326.5 92t-103.5 289q0 85 6 149l12 97q-82 -40 -139 -62q-82 -31 -192 -57q4 -50 14 -205q8 -101 8 -258q0 -485 -569 -485v260q117 0 195.5 60.5t78.5 180.5
q0 137 -11.5 269t-45.5 403l20 25q377 35 699 194zM727 1309l207 207l209 -207l-207 -207z" />
    <glyph glyph-name="uniFC8B" unicode="&#xfc8b;" horiz-adv-x="1282" arabic-form="final" 
d="M926 952l241 -141q-45 -167 -45 -297q2 -90 42 -141t116 -51q20 0 20 -21v-278q0 -23 -20 -23q-223 0 -326.5 92t-103.5 289q0 85 6 149l12 97q-82 -40 -139 -62q-82 -31 -192 -57q4 -50 14 -205q8 -101 8 -258q0 -485 -569 -485v260q117 0 195.5 60.5t78.5 180.5
q0 137 -11.5 269t-45.5 403l20 25q377 35 699 194zM74 1149l207 207l208 -207l-206 -207zM727 1309l207 207l209 -207l-207 -207z" />
    <glyph glyph-name="uniFC8D" unicode="&#xfc8d;" horiz-adv-x="1978" arabic-form="final" 
d="M1622 952l244 -141q-48 -177 -45 -297q0 -90 40 -141t117 -51q21 0 21 -21v-278q0 -23 -21 -23q-229 0 -330.5 90t-101.5 291q0 85 6 149l13 97q-38 -22 -41 -23q-70 -34 -191 -72l-102 -24l14 -146q6 -83 6 -167q0 -306 -159.5 -470.5t-470.5 -164.5q-276 0 -424 145
t-148 416q0 114 21 215t67 248h279q-86 -230 -86 -387q0 -147 74 -231.5t221 -84.5q323 0 323 344q0 110 -9.5 214t-35.5 294l21 25q384 36 698 194zM1409 1333l207 207l209 -207l-207 -207zM416 1006l207 206l208 -206l-206 -207z" />
    <glyph glyph-name="uniFC8E" unicode="&#xfc8e;" horiz-adv-x="1873" arabic-form="final" 
d="M1411 1036l303 -166q-53 -223 -53 -344q0 -204 211 -204q20 0 20 -21v-278q0 -23 -20 -23q-237 0 -369.5 113.5t-132.5 322.5q0 62 10 160q10 79 21 143q-125 -9 -203 -32q-126 -34 -187 -88.5t-61 -108.5q0 -36 27.5 -67.5t97.5 -80.5l66 -47q101 -71 150.5 -148
t49.5 -173q0 -195 -176.5 -314.5t-478.5 -119.5q-314 0 -475.5 142t-161.5 419q0 114 21 215t67 248h279q-86 -230 -86 -387q0 -168 100 -243t328 -75q132 0 211.5 31.5t79.5 81.5t-125 139l-105 80q-81 61 -120.5 130.5t-39.5 158.5q0 66 24.5 131.5t82 131.5t142 120
t214.5 95t289 58zM1192 1415l207 207l209 -207l-207 -207z" />
    <glyph glyph-name="uniFC8F" unicode="&#xfc8f;" horiz-adv-x="1873" arabic-form="final" 
d="M1411 1036l303 -166q-53 -223 -53 -344q0 -204 211 -204q20 0 20 -21v-278q0 -23 -20 -23q-237 0 -369.5 113.5t-132.5 322.5q0 62 10 160q10 79 21 143q-125 -9 -203 -32q-126 -34 -187 -88.5t-61 -108.5q0 -36 27.5 -67.5t97.5 -80.5l66 -47q101 -71 150.5 -148
t49.5 -173q0 -195 -176.5 -314.5t-478.5 -119.5q-314 0 -475.5 142t-161.5 419q0 114 21 215t67 248h279q-86 -230 -86 -387q0 -168 100 -243t328 -75q132 0 211.5 31.5t79.5 81.5t-125 139l-105 80q-81 61 -120.5 130.5t-39.5 158.5q0 66 24.5 131.5t82 131.5t142 120
t214.5 95t289 58zM1192 1415l207 207l209 -207l-207 -207zM481 -750l207 207l148 -141l143 141l209 -207l-205 -206l-147 143l-144 -143z" />
    <glyph glyph-name="uniFC91" unicode="&#xfc91;" horiz-adv-x="1282" arabic-form="final" 
d="M926 952l241 -141q-45 -167 -45 -297q2 -90 42 -141t116 -51q20 0 20 -21v-278q0 -23 -20 -23q-223 0 -326.5 92t-103.5 289q0 85 6 149l12 97q-82 -40 -139 -62q-82 -31 -192 -57q4 -50 14 -205q8 -101 8 -258q0 -485 -569 -485v260q117 0 195.5 60.5t78.5 180.5
q0 137 -11.5 269t-45.5 403l20 25q377 35 699 194zM539 -311l206 207l148 -142l143 142l209 -207l-205 -207l-147 143l-143 -143z" />
    <glyph glyph-name="uniFC92" unicode="&#xfc92;" horiz-adv-x="1282" arabic-form="final" 
d="M926 952l241 -141q-45 -167 -45 -297q2 -90 42 -141t116 -51q20 0 20 -21v-278q0 -23 -20 -23q-223 0 -326.5 92t-103.5 289q0 85 6 149l12 97q-82 -40 -139 -62q-82 -31 -192 -57q4 -50 14 -205q8 -101 8 -258q0 -485 -569 -485v260q117 0 195.5 60.5t78.5 180.5
q0 137 -11.5 269t-45.5 403l20 25q377 35 699 194zM74 1149l207 207l208 -207l-206 -207zM539 -311l206 207l148 -142l143 142l209 -207l-205 -207l-147 143l-143 -143z" />
    <glyph glyph-name="uniFC94" unicode="&#xfc94;" horiz-adv-x="1978" arabic-form="final" 
d="M1622 952l244 -141q-48 -177 -45 -297q0 -90 40 -141t117 -51q21 0 21 -21v-278q0 -23 -21 -23q-229 0 -330.5 90t-101.5 291q0 85 6 149l13 97q-38 -22 -41 -23q-70 -34 -191 -72l-102 -24l14 -146q6 -83 6 -167q0 -306 -159.5 -470.5t-470.5 -164.5q-276 0 -424 145
t-148 416q0 114 21 215t67 248h279q-86 -230 -86 -387q0 -147 74 -231.5t221 -84.5q323 0 323 344q0 110 -9.5 214t-35.5 294l21 25q384 36 698 194zM1200 -311l207 207l145 -142l146 142l209 -207l-205 -207l-148 143l-143 -143zM416 1006l207 206l208 -206l-206 -207z" />
    <glyph glyph-name="uniFCCC" unicode="&#xfccc;" horiz-adv-x="681" arabic-form="initial" 
d="M0 322q60 0 135 -7l60 -8q0 6 -2 8q-19 141 -19 209v961h305v-1233q47 -21 58 -27q95 -50 198 -133l-155 -278q-110 21 -205 69q-74 41 -125 86l-19 4q-116 27 -231 27q-20 0 -20 20v279q0 23 20 23z" />
    <glyph glyph-name="uniFCFB" unicode="&#xfcfb;" horiz-adv-x="3098" arabic-form="isolated" 
d="M2640 993h305q61 -392 61 -577q0 -188 -112 -301t-299 -113q-96 0 -217 41q-81 28 -162 82q-33 -28 -86 -59q-122 -66 -268 -66q-231 0 -361.5 113.5t-130.5 322.5q0 62 10 160q10 79 21 143q-125 -9 -203 -32q-126 -34 -187 -88.5t-61 -108.5q0 -36 27.5 -67.5
t97.5 -80.5l66 -47q101 -71 150.5 -148t49.5 -173q0 -195 -176.5 -314.5t-478.5 -119.5q-314 0 -475.5 142t-161.5 419q0 114 21 215t67 248h279q-86 -230 -86 -387q0 -168 100 -243t328 -75q132 0 211.5 31.5t79.5 81.5t-125 139l-105 80q-81 61 -120.5 130.5t-39.5 158.5
q0 66 24.5 131.5t82 131.5t142 120t214.5 95t289 58l303 -166q-53 -223 -53 -344q0 -98 55.5 -151t159.5 -53q141 0 186 86q25 48 34 130t9 220h281q0 -155 -19 -291q-8 -51 -22 -113l47 -16q69 -16 137 -16q92 0 132 41.5t40 138.5q0 129 -61 491z" />
    <glyph glyph-name="uniFCFC" unicode="&#xfcfc;" horiz-adv-x="3098" arabic-form="isolated" 
d="M2640 993h305q61 -392 61 -577q0 -188 -112 -301t-299 -113q-96 0 -217 41q-81 28 -162 82q-33 -28 -86 -59q-122 -66 -268 -66q-231 0 -361.5 113.5t-130.5 322.5q0 62 10 160q10 79 21 143q-125 -9 -203 -32q-126 -34 -187 -88.5t-61 -108.5q0 -36 27.5 -67.5
t97.5 -80.5l66 -47q101 -71 150.5 -148t49.5 -173q0 -195 -176.5 -314.5t-478.5 -119.5q-314 0 -475.5 142t-161.5 419q0 114 21 215t67 248h279q-86 -230 -86 -387q0 -168 100 -243t328 -75q132 0 211.5 31.5t79.5 81.5t-125 139l-105 80q-81 61 -120.5 130.5t-39.5 158.5
q0 66 24.5 131.5t82 131.5t142 120t214.5 95t289 58l303 -166q-53 -223 -53 -344q0 -98 55.5 -151t159.5 -53q141 0 186 86q25 48 34 130t9 220h281q0 -155 -19 -291q-8 -51 -22 -113l47 -16q69 -16 137 -16q92 0 132 41.5t40 138.5q0 129 -61 491zM481 -750l207 207
l148 -141l143 141l209 -207l-205 -206l-147 143l-144 -143z" />
    <glyph glyph-name="uniFCFD" unicode="&#xfcfd;" horiz-adv-x="3098" arabic-form="isolated" 
d="M2640 993h305q61 -392 61 -577q0 -188 -112 -301t-299 -113q-96 0 -217 41q-81 28 -162 82q-33 -28 -86 -59q-122 -66 -268 -66q-231 0 -361.5 113.5t-130.5 322.5q0 62 10 160q10 79 21 143q-125 -9 -203 -32q-126 -34 -187 -88.5t-61 -108.5q0 -36 27.5 -67.5
t97.5 -80.5l66 -47q101 -71 150.5 -148t49.5 -173q0 -195 -176.5 -314.5t-478.5 -119.5q-314 0 -475.5 142t-161.5 419q0 114 21 215t67 248h279q-86 -230 -86 -387q0 -168 100 -243t328 -75q132 0 211.5 31.5t79.5 81.5t-125 139l-105 80q-81 61 -120.5 130.5t-39.5 158.5
q0 66 24.5 131.5t82 131.5t142 120t214.5 95t289 58l303 -166q-53 -223 -53 -344q0 -98 55.5 -151t159.5 -53q141 0 186 86q25 48 34 130t9 220h281q0 -155 -19 -291q-8 -51 -22 -113l47 -16q69 -16 137 -16q92 0 132 41.5t40 138.5q0 129 -61 491zM1892 1151l205 209
l162 -162l162 162l207 -209l-205 -207l-164 160l-160 -160zM2118 1438l141 143l145 -143l-143 -144z" />
    <glyph glyph-name="uniFCFE" unicode="&#xfcfe;" horiz-adv-x="3098" arabic-form="isolated" 
d="M2640 993h305q61 -392 61 -577q0 -188 -112 -301t-299 -113q-96 0 -217 41q-81 28 -162 82q-33 -28 -86 -59q-122 -66 -268 -66q-231 0 -361.5 113.5t-130.5 322.5q0 62 10 160q10 79 21 143q-125 -9 -203 -32q-126 -34 -187 -88.5t-61 -108.5q0 -36 27.5 -67.5
t97.5 -80.5l66 -47q101 -71 150.5 -148t49.5 -173q0 -195 -176.5 -314.5t-478.5 -119.5q-314 0 -475.5 142t-161.5 419q0 114 21 215t67 248h279q-86 -230 -86 -387q0 -168 100 -243t328 -75q132 0 211.5 31.5t79.5 81.5t-125 139l-105 80q-81 61 -120.5 130.5t-39.5 158.5
q0 66 24.5 131.5t82 131.5t142 120t214.5 95t289 58l303 -166q-53 -223 -53 -344q0 -98 55.5 -151t159.5 -53q141 0 186 86q25 48 34 130t9 220h281q0 -155 -19 -291q-8 -51 -22 -113l47 -16q69 -16 137 -16q92 0 132 41.5t40 138.5q0 129 -61 491zM481 -750l207 207
l148 -141l143 141l209 -207l-205 -206l-147 143l-144 -143zM1880 1151l205 209l162 -162l161 162l207 -209l-205 -207l-163 160l-160 -160zM2105 1438l142 143l145 -143l-143 -144z" />
    <glyph glyph-name="uniFD05" unicode="&#xfd05;" horiz-adv-x="3151" arabic-form="isolated" 
d="M2619 1108q202 0 331.5 -134.5t129.5 -338.5q0 -294 -225 -464.5t-621 -170.5h-319q-265 0 -405 111t-140 325q0 62 10 160q10 79 21 143q-125 -9 -203 -32q-126 -34 -187 -88.5t-61 -108.5q0 -36 27.5 -67.5t97.5 -80.5l66 -47q101 -71 150.5 -148t49.5 -173
q0 -195 -176.5 -314.5t-478.5 -119.5q-314 0 -475.5 142t-161.5 419q0 114 21 215t67 248h279q-86 -230 -86 -387q0 -168 100 -243t328 -75q132 0 211.5 31.5t79.5 81.5t-125 139l-105 80q-81 61 -120.5 130.5t-39.5 158.5q0 66 24.5 131.5t82 131.5t142 120t214.5 95
t289 58l303 -166q-32 -131 -42.5 -197.5t-10.5 -129.5q0 -76 22 -125q146 163 234 256q220 235 380.5 334.5t321.5 99.5zM1905 322h10h303q250 0 401.5 76t151.5 198q0 87 -60 142t-157 55q-108 0 -219.5 -73t-298.5 -263z" />
    <glyph glyph-name="uniFD06" unicode="&#xfd06;" horiz-adv-x="3151" arabic-form="isolated" 
d="M2619 1108q202 0 331.5 -134.5t129.5 -338.5q0 -294 -225 -464.5t-621 -170.5h-319q-265 0 -405 111t-140 325q0 62 10 160q10 79 21 143q-125 -9 -203 -32q-126 -34 -187 -88.5t-61 -108.5q0 -36 27.5 -67.5t97.5 -80.5l66 -47q101 -71 150.5 -148t49.5 -173
q0 -195 -176.5 -314.5t-478.5 -119.5q-314 0 -475.5 142t-161.5 419q0 114 21 215t67 248h279q-86 -230 -86 -387q0 -168 100 -243t328 -75q132 0 211.5 31.5t79.5 81.5t-125 139l-105 80q-81 61 -120.5 130.5t-39.5 158.5q0 66 24.5 131.5t82 131.5t142 120t214.5 95
t289 58l303 -166q-32 -131 -42.5 -197.5t-10.5 -129.5q0 -76 22 -125q146 163 234 256q220 235 380.5 334.5t321.5 99.5zM1905 322h10h303q250 0 401.5 76t151.5 198q0 87 -60 142t-157 55q-108 0 -219.5 -73t-298.5 -263zM481 -750l207 207l148 -141l143 141l209 -207
l-205 -206l-147 143l-144 -143z" />
    <glyph glyph-name="uniFD07" unicode="&#xfd07;" horiz-adv-x="3151" arabic-form="isolated" 
d="M2619 1108q202 0 331.5 -134.5t129.5 -338.5q0 -294 -225 -464.5t-621 -170.5h-319q-265 0 -405 111t-140 325q0 62 10 160q10 79 21 143q-125 -9 -203 -32q-126 -34 -187 -88.5t-61 -108.5q0 -36 27.5 -67.5t97.5 -80.5l66 -47q101 -71 150.5 -148t49.5 -173
q0 -195 -176.5 -314.5t-478.5 -119.5q-314 0 -475.5 142t-161.5 419q0 114 21 215t67 248h279q-86 -230 -86 -387q0 -168 100 -243t328 -75q132 0 211.5 31.5t79.5 81.5t-125 139l-105 80q-81 61 -120.5 130.5t-39.5 158.5q0 66 24.5 131.5t82 131.5t142 120t214.5 95
t289 58l303 -166q-32 -131 -42.5 -197.5t-10.5 -129.5q0 -76 22 -125q146 163 234 256q220 235 380.5 334.5t321.5 99.5zM1905 322h10h303q250 0 401.5 76t151.5 198q0 87 -60 142t-157 55q-108 0 -219.5 -73t-298.5 -263zM1886 1292l207 207l209 -207l-207 -207z" />
    <glyph glyph-name="uniFD08" unicode="&#xfd08;" horiz-adv-x="3151" arabic-form="isolated" 
d="M2619 1108q202 0 331.5 -134.5t129.5 -338.5q0 -294 -225 -464.5t-621 -170.5h-319q-265 0 -405 111t-140 325q0 62 10 160q10 79 21 143q-125 -9 -203 -32q-126 -34 -187 -88.5t-61 -108.5q0 -36 27.5 -67.5t97.5 -80.5l66 -47q101 -71 150.5 -148t49.5 -173
q0 -195 -176.5 -314.5t-478.5 -119.5q-314 0 -475.5 142t-161.5 419q0 114 21 215t67 248h279q-86 -230 -86 -387q0 -168 100 -243t328 -75q132 0 211.5 31.5t79.5 81.5t-125 139l-105 80q-81 61 -120.5 130.5t-39.5 158.5q0 66 24.5 131.5t82 131.5t142 120t214.5 95
t289 58l303 -166q-32 -131 -42.5 -197.5t-10.5 -129.5q0 -76 22 -125q146 163 234 256q220 235 380.5 334.5t321.5 99.5zM1905 322h10h303q250 0 401.5 76t151.5 198q0 87 -60 142t-157 55q-108 0 -219.5 -73t-298.5 -263zM481 -750l207 207l148 -141l143 141l209 -207
l-205 -206l-147 143l-144 -143zM1886 1292l207 207l209 -207l-207 -207z" />
    <glyph glyph-name="uniFD0D" unicode="&#xfd0d;" horiz-adv-x="2533" arabic-form="isolated" 
d="M885 1014h297q-49 -201 -66.5 -295.5t-17.5 -157.5q0 -124 52.5 -181.5t170.5 -57.5q131 0 178 86q25 48 34 130t9 220h281q0 -155 -19 -291q-8 -51 -22 -113l47 -16q69 -16 137 -16q92 0 132 41.5t40 138.5q0 129 -61 491h305q61 -392 61 -577q0 -188 -112 -301
t-299 -113q-96 0 -217 41q-83 28 -160 82q-34 -31 -82 -59q-120 -66 -264 -66q-247 0 -375.5 121t-128.5 354q0 88 8 156l-111 -27q-84 -21 -170 -55l9 -107q18 -194 18 -397q0 -485 -569 -485v260q117 0 195.5 60.5t78.5 180.5q0 42 -1 79t-3.5 80.5t-4.5 69.5t-7.5 79
t-7.5 73.5t-10 90t-11 92.5l209 202q147 36 270 56q108 20 164 26zM1317 1145l205 209l161 -162l162 162l207 -209l-205 -207l-164 160l-159 -160zM1542 1432l141 143l146 -143l-143 -144z" />
    <glyph glyph-name="uniFD0E" unicode="&#xfd0e;" horiz-adv-x="2533" arabic-form="isolated" 
d="M885 1014h297q-49 -201 -66.5 -295.5t-17.5 -157.5q0 -124 52.5 -181.5t170.5 -57.5q131 0 178 86q25 48 34 130t9 220h281q0 -155 -19 -291q-8 -51 -22 -113l47 -16q69 -16 137 -16q92 0 132 41.5t40 138.5q0 129 -61 491h305q61 -392 61 -577q0 -188 -112 -301
t-299 -113q-96 0 -217 41q-83 28 -160 82q-34 -31 -82 -59q-120 -66 -264 -66q-247 0 -375.5 121t-128.5 354q0 88 8 156l-111 -27q-84 -21 -170 -55l9 -107q18 -194 18 -397q0 -485 -569 -485v260q117 0 195.5 60.5t78.5 180.5q0 42 -1 79t-3.5 80.5t-4.5 69.5t-7.5 79
t-7.5 73.5t-10 90t-11 92.5l209 202q147 36 270 56q108 20 164 26z" />
    <glyph glyph-name="uniFD0F" unicode="&#xfd0f;" horiz-adv-x="2627" arabic-form="isolated" 
d="M2095 1108q203 0 333 -134.5t130 -338.5q0 -294 -225.5 -464.5t-620.5 -170.5h-262q-645 0 -645 475q0 88 8 156l-111 -27q-84 -21 -170 -55l9 -107q18 -194 18 -397q0 -485 -569 -485v260q117 0 195.5 60.5t78.5 180.5q0 42 -1 79t-3.5 80.5t-4.5 69.5t-7.5 79
t-7.5 73.5t-10 90t-11 92.5l209 202q147 36 270 56q108 20 164 26l23 105h297q-49 -201 -66.5 -295.5t-17.5 -157.5q0 -98 51 -155q157 174 246 268q224 237 382 335.5t318 98.5zM1454 322h240q251 0 403 76t152 198q0 87 -60.5 142t-158.5 55q-107 0 -218.5 -73
t-298.5 -263l-129 -133q23 -2 70 -2z" />
    <glyph glyph-name="uniFD10" unicode="&#xfd10;" horiz-adv-x="2627" arabic-form="isolated" 
d="M2095 1108q203 0 333 -134.5t130 -338.5q0 -294 -225.5 -464.5t-620.5 -170.5h-262q-645 0 -645 475q0 88 8 156l-111 -27q-84 -21 -170 -55l9 -107q18 -194 18 -397q0 -485 -569 -485v260q117 0 195.5 60.5t78.5 180.5q0 42 -1 79t-3.5 80.5t-4.5 69.5t-7.5 79
t-7.5 73.5t-10 90t-11 92.5l209 202q147 36 270 56q108 20 164 26l23 105h297q-49 -201 -66.5 -295.5t-17.5 -157.5q0 -98 51 -155q157 174 246 268q224 237 382 335.5t318 98.5zM1454 322h240q251 0 403 76t152 198q0 87 -60.5 142t-158.5 55q-107 0 -218.5 -73
t-298.5 -263l-129 -133q23 -2 70 -2zM1309 1278l207 207l208 -207l-206 -207z" />
    <glyph glyph-name="uniFD17" unicode="&#xfd17;" horiz-adv-x="3170" arabic-form="final" 
d="M2703 901h283v-143q0 -168 -20 -291q-3 -21 -17 -90q48 -25 82 -35q64 -20 139 -20q21 0 21 -21v-278q0 -23 -21 -23q-182 0 -327 145q-32 -44 -80 -79q-91 -66 -223 -66q-75 0 -143 27t-154 84q-14 8 -31 22q-43 -43 -90 -67q-117 -66 -250 -66q-235 0 -368.5 118.5
t-133.5 317.5q0 62 10 160q10 79 21 143q-125 -9 -203 -32q-126 -34 -187 -88.5t-61 -108.5q0 -36 27.5 -67.5t97.5 -80.5l66 -47q101 -71 150.5 -148t49.5 -173q0 -195 -176.5 -314.5t-478.5 -119.5q-314 0 -475.5 142t-161.5 419q0 114 21 215t67 248h279
q-86 -230 -86 -387q0 -168 100 -243t328 -75q132 0 211.5 31.5t79.5 81.5t-125 139l-105 80q-81 61 -120.5 130.5t-39.5 158.5q0 66 24.5 131.5t82 131.5t142 120t214.5 95t289 58l303 -166q-21 -86 -37 -188.5t-16 -155.5q0 -99 55 -151.5t164 -52.5q121 0 168 86
q25 48 34 130t9 220h281q0 -155 -19 -291q-9 -64 -24 -115q77 -30 163 -30q123 0 170 86q25 48 33 128t8 222v143z" />
    <glyph glyph-name="uniFD18" unicode="&#xfd18;" horiz-adv-x="3170" arabic-form="final" 
d="M2703 901h283v-143q0 -168 -20 -291q-3 -21 -17 -90q48 -25 82 -35q64 -20 139 -20q21 0 21 -21v-278q0 -23 -21 -23q-182 0 -327 145q-32 -44 -80 -79q-91 -66 -223 -66q-75 0 -143 27t-154 84q-14 8 -31 22q-43 -43 -90 -67q-117 -66 -250 -66q-235 0 -368.5 118.5
t-133.5 317.5q0 62 10 160q10 79 21 143q-125 -9 -203 -32q-126 -34 -187 -88.5t-61 -108.5q0 -36 27.5 -67.5t97.5 -80.5l66 -47q101 -71 150.5 -148t49.5 -173q0 -195 -176.5 -314.5t-478.5 -119.5q-314 0 -475.5 142t-161.5 419q0 114 21 215t67 248h279
q-86 -230 -86 -387q0 -168 100 -243t328 -75q132 0 211.5 31.5t79.5 81.5t-125 139l-105 80q-81 61 -120.5 130.5t-39.5 158.5q0 66 24.5 131.5t82 131.5t142 120t214.5 95t289 58l303 -166q-21 -86 -37 -188.5t-16 -155.5q0 -99 55 -151.5t164 -52.5q121 0 168 86
q25 48 34 130t9 220h281q0 -155 -19 -291q-9 -64 -24 -115q77 -30 163 -30q123 0 170 86q25 48 33 128t8 222v143zM481 -752l207 207l146 -141l145 141l209 -207l-205 -206l-147 143l-144 -143z" />
    <glyph glyph-name="uniFD19" unicode="&#xfd19;" horiz-adv-x="3170" arabic-form="final" 
d="M2703 901h283v-143q0 -168 -20 -291q-3 -21 -17 -90q48 -25 82 -35q64 -20 139 -20q21 0 21 -21v-278q0 -23 -21 -23q-182 0 -327 145q-32 -44 -80 -79q-91 -66 -223 -66q-75 0 -143 27t-154 84q-14 8 -31 22q-43 -43 -90 -67q-117 -66 -250 -66q-235 0 -368.5 118.5
t-133.5 317.5q0 62 10 160q10 79 21 143q-125 -9 -203 -32q-126 -34 -187 -88.5t-61 -108.5q0 -36 27.5 -67.5t97.5 -80.5l66 -47q101 -71 150.5 -148t49.5 -173q0 -195 -176.5 -314.5t-478.5 -119.5q-314 0 -475.5 142t-161.5 419q0 114 21 215t67 248h279
q-86 -230 -86 -387q0 -168 100 -243t328 -75q132 0 211.5 31.5t79.5 81.5t-125 139l-105 80q-81 61 -120.5 130.5t-39.5 158.5q0 66 24.5 131.5t82 131.5t142 120t214.5 95t289 58l303 -166q-21 -86 -37 -188.5t-16 -155.5q0 -99 55 -151.5t164 -52.5q121 0 168 86
q25 48 34 130t9 220h281q0 -155 -19 -291q-9 -64 -24 -115q77 -30 163 -30q123 0 170 86q25 48 33 128t8 222v143zM1870 1149l205 209l161 -162l162 162l207 -209l-205 -207l-164 160l-159 -160zM2095 1436l141 143l146 -143l-144 -144z" />
    <glyph glyph-name="uniFD1A" unicode="&#xfd1a;" horiz-adv-x="3170" arabic-form="final" 
d="M2703 901h283v-143q0 -168 -20 -291q-3 -21 -17 -90q48 -25 82 -35q64 -20 139 -20q21 0 21 -21v-278q0 -23 -21 -23q-182 0 -327 145q-32 -44 -80 -79q-91 -66 -223 -66q-75 0 -143 27t-154 84q-14 8 -31 22q-43 -43 -90 -67q-117 -66 -250 -66q-235 0 -368.5 118.5
t-133.5 317.5q0 62 10 160q10 79 21 143q-125 -9 -203 -32q-126 -34 -187 -88.5t-61 -108.5q0 -36 27.5 -67.5t97.5 -80.5l66 -47q101 -71 150.5 -148t49.5 -173q0 -195 -176.5 -314.5t-478.5 -119.5q-314 0 -475.5 142t-161.5 419q0 114 21 215t67 248h279
q-86 -230 -86 -387q0 -168 100 -243t328 -75q132 0 211.5 31.5t79.5 81.5t-125 139l-105 80q-81 61 -120.5 130.5t-39.5 158.5q0 66 24.5 131.5t82 131.5t142 120t214.5 95t289 58l303 -166q-21 -86 -37 -188.5t-16 -155.5q0 -99 55 -151.5t164 -52.5q121 0 168 86
q25 48 34 130t9 220h281q0 -155 -19 -291q-9 -64 -24 -115q77 -30 163 -30q123 0 170 86q25 48 33 128t8 222v143zM1853 1149l205 209l162 -162l162 162l207 -209l-205 -207l-164 160l-160 -160zM481 -752l207 207l146 -141l145 141l209 -207l-205 -206l-147 143l-144 -143z
M2079 1436l141 143l145 -143l-143 -144z" />
    <glyph glyph-name="uniFD21" unicode="&#xfd21;" horiz-adv-x="3262" arabic-form="final" 
d="M2619 1108q202 0 331.5 -134.5t129.5 -338.5q0 -294 -225 -464.5t-621 -170.5h-319q-265 0 -405 111t-140 325q0 62 10 160q10 79 21 143q-125 -9 -203 -32q-126 -34 -187 -88.5t-61 -108.5q0 -36 27.5 -67.5t97.5 -80.5l66 -47q101 -71 150.5 -148t49.5 -173
q0 -195 -176.5 -314.5t-478.5 -119.5q-314 0 -475.5 142t-161.5 419q0 114 21 215t67 248h279q-86 -230 -86 -387q0 -168 100 -243t328 -75q132 0 211.5 31.5t79.5 81.5t-125 139l-105 80q-81 61 -120.5 130.5t-39.5 158.5q0 66 24.5 131.5t82 131.5t142 120t214.5 95
t289 58l303 -166q-32 -131 -42.5 -197.5t-10.5 -129.5q0 -76 22 -125q146 163 234 256q220 235 380.5 334.5t321.5 99.5zM1905 322h10h303q250 0 401.5 76t151.5 198q0 87 -60 142t-157 55q-108 0 -219.5 -73t-298.5 -263zM2857 238l133 174q120 -90 272 -90q21 0 21 -21
v-278q0 -23 -21 -23q-232 0 -405 238z" />
    <glyph glyph-name="uniFD22" unicode="&#xfd22;" horiz-adv-x="3262" arabic-form="final" 
d="M2619 1108q202 0 331.5 -134.5t129.5 -338.5q0 -294 -225 -464.5t-621 -170.5h-319q-265 0 -405 111t-140 325q0 62 10 160q10 79 21 143q-125 -9 -203 -32q-126 -34 -187 -88.5t-61 -108.5q0 -36 27.5 -67.5t97.5 -80.5l66 -47q101 -71 150.5 -148t49.5 -173
q0 -195 -176.5 -314.5t-478.5 -119.5q-314 0 -475.5 142t-161.5 419q0 114 21 215t67 248h279q-86 -230 -86 -387q0 -168 100 -243t328 -75q132 0 211.5 31.5t79.5 81.5t-125 139l-105 80q-81 61 -120.5 130.5t-39.5 158.5q0 66 24.5 131.5t82 131.5t142 120t214.5 95
t289 58l303 -166q-32 -131 -42.5 -197.5t-10.5 -129.5q0 -76 22 -125q146 163 234 256q220 235 380.5 334.5t321.5 99.5zM1905 322h10h303q250 0 401.5 76t151.5 198q0 87 -60 142t-157 55q-108 0 -219.5 -73t-298.5 -263zM2857 238l133 174q120 -90 272 -90q21 0 21 -21
v-278q0 -23 -21 -23q-232 0 -405 238zM481 -750l207 207l148 -141l143 141l209 -207l-205 -206l-147 143l-144 -143z" />
    <glyph glyph-name="uniFD23" unicode="&#xfd23;" horiz-adv-x="3262" arabic-form="final" 
d="M2619 1108q202 0 331.5 -134.5t129.5 -338.5q0 -294 -225 -464.5t-621 -170.5h-319q-265 0 -405 111t-140 325q0 62 10 160q10 79 21 143q-125 -9 -203 -32q-126 -34 -187 -88.5t-61 -108.5q0 -36 27.5 -67.5t97.5 -80.5l66 -47q101 -71 150.5 -148t49.5 -173
q0 -195 -176.5 -314.5t-478.5 -119.5q-314 0 -475.5 142t-161.5 419q0 114 21 215t67 248h279q-86 -230 -86 -387q0 -168 100 -243t328 -75q132 0 211.5 31.5t79.5 81.5t-125 139l-105 80q-81 61 -120.5 130.5t-39.5 158.5q0 66 24.5 131.5t82 131.5t142 120t214.5 95
t289 58l303 -166q-32 -131 -42.5 -197.5t-10.5 -129.5q0 -76 22 -125q146 163 234 256q220 235 380.5 334.5t321.5 99.5zM1905 322h10h303q250 0 401.5 76t151.5 198q0 87 -60 142t-157 55q-108 0 -219.5 -73t-298.5 -263zM2857 238l133 174q120 -90 272 -90q21 0 21 -21
v-278q0 -23 -21 -23q-232 0 -405 238zM1886 1292l207 207l209 -207l-207 -207z" />
    <glyph glyph-name="uniFD24" unicode="&#xfd24;" horiz-adv-x="3262" arabic-form="final" 
d="M2619 1108q202 0 331.5 -134.5t129.5 -338.5q0 -294 -225 -464.5t-621 -170.5h-319q-265 0 -405 111t-140 325q0 62 10 160q10 79 21 143q-125 -9 -203 -32q-126 -34 -187 -88.5t-61 -108.5q0 -36 27.5 -67.5t97.5 -80.5l66 -47q101 -71 150.5 -148t49.5 -173
q0 -195 -176.5 -314.5t-478.5 -119.5q-314 0 -475.5 142t-161.5 419q0 114 21 215t67 248h279q-86 -230 -86 -387q0 -168 100 -243t328 -75q132 0 211.5 31.5t79.5 81.5t-125 139l-105 80q-81 61 -120.5 130.5t-39.5 158.5q0 66 24.5 131.5t82 131.5t142 120t214.5 95
t289 58l303 -166q-32 -131 -42.5 -197.5t-10.5 -129.5q0 -76 22 -125q146 163 234 256q220 235 380.5 334.5t321.5 99.5zM1905 322h10h303q250 0 401.5 76t151.5 198q0 87 -60 142t-157 55q-108 0 -219.5 -73t-298.5 -263zM2857 238l133 174q120 -90 272 -90q21 0 21 -21
v-278q0 -23 -21 -23q-232 0 -405 238zM481 -750l207 207l148 -141l143 141l209 -207l-205 -206l-147 143l-144 -143zM1886 1292l207 207l209 -207l-207 -207z" />
    <glyph glyph-name="uniFD29" unicode="&#xfd29;" horiz-adv-x="2605" arabic-form="final" 
d="M885 1014h297q-48 -197 -65 -292.5t-17 -160.5q0 -126 53 -182.5t164 -56.5q123 0 170 86q25 48 33 128t8 222h282q0 -168 -20 -291q-10 -71 -23 -115q77 -30 162 -30q123 0 170 86q25 48 33 128t8 222v143h283v-143q0 -162 -21 -291q-4 -28 -16 -92q42 -22 80 -33
q64 -20 139 -20q21 0 21 -21v-278q0 -23 -21 -23q-185 0 -328 143q-29 -39 -77 -77q-91 -66 -224 -66q-75 0 -143 27t-154 84q-10 6 -30 22q-42 -42 -88 -67q-117 -66 -250 -66q-238 0 -371.5 124t-134.5 351q0 88 8 156l-111 -27q-84 -21 -170 -55l9 -107q18 -194 18 -397
q0 -485 -569 -485v260q117 0 195.5 60.5t78.5 180.5q0 42 -1 79t-3.5 80.5t-4.5 69.5t-7.5 79t-7.5 73.5t-10 90t-11 92.5l209 202q147 36 270 56q108 20 164 26zM1296 1143l205 209l162 -162l162 162l207 -209l-205 -207l-164 160l-160 -160zM1522 1430l141 143l145 -143
l-143 -144z" />
    <glyph glyph-name="uniFD2A" unicode="&#xfd2a;" horiz-adv-x="2605" arabic-form="final" 
d="M885 1014h297q-48 -197 -65 -292.5t-17 -160.5q0 -126 53 -182.5t164 -56.5q123 0 170 86q25 48 33 128t8 222h282q0 -168 -20 -291q-10 -71 -23 -115q77 -30 162 -30q123 0 170 86q25 48 33 128t8 222v143h283v-143q0 -162 -21 -291q-4 -28 -16 -92q42 -22 80 -33
q64 -20 139 -20q21 0 21 -21v-278q0 -23 -21 -23q-185 0 -328 143q-29 -39 -77 -77q-91 -66 -224 -66q-75 0 -143 27t-154 84q-10 6 -30 22q-42 -42 -88 -67q-117 -66 -250 -66q-238 0 -371.5 124t-134.5 351q0 88 8 156l-111 -27q-84 -21 -170 -55l9 -107q18 -194 18 -397
q0 -485 -569 -485v260q117 0 195.5 60.5t78.5 180.5q0 42 -1 79t-3.5 80.5t-4.5 69.5t-7.5 79t-7.5 73.5t-10 90t-11 92.5l209 202q147 36 270 56q108 20 164 26z" />
    <glyph glyph-name="uniFD2B" unicode="&#xfd2b;" horiz-adv-x="2686" arabic-form="final" 
d="M2095 1108q203 0 333 -134.5t130 -338.5q0 -294 -225.5 -464.5t-620.5 -170.5h-262q-645 0 -645 475q0 88 8 156l-111 -27q-84 -21 -170 -55l9 -107q18 -194 18 -397q0 -485 -569 -485v260q117 0 195.5 60.5t78.5 180.5q0 42 -1 79t-3.5 80.5t-4.5 69.5t-7.5 79
t-7.5 73.5t-10 90t-11 92.5l209 202q147 36 270 56q108 20 164 26l23 105h297q-49 -201 -66.5 -295.5t-17.5 -157.5q0 -98 51 -155q157 174 246 268q224 237 382 335.5t318 98.5zM1454 322h240q251 0 403 76t152 198q0 87 -60.5 142t-158.5 55q-107 0 -218.5 -73
t-298.5 -263l-129 -133q23 -2 70 -2zM2281 238l134 174q120 -90 272 -90q20 0 20 -21v-278q0 -23 -20 -23q-233 0 -406 238z" />
    <glyph glyph-name="uniFD2C" unicode="&#xfd2c;" horiz-adv-x="2686" arabic-form="final" 
d="M2095 1108q203 0 333 -134.5t130 -338.5q0 -294 -225.5 -464.5t-620.5 -170.5h-262q-645 0 -645 475q0 88 8 156l-111 -27q-84 -21 -170 -55l9 -107q18 -194 18 -397q0 -485 -569 -485v260q117 0 195.5 60.5t78.5 180.5q0 42 -1 79t-3.5 80.5t-4.5 69.5t-7.5 79
t-7.5 73.5t-10 90t-11 92.5l209 202q147 36 270 56q108 20 164 26l23 105h297q-49 -201 -66.5 -295.5t-17.5 -157.5q0 -98 51 -155q157 174 246 268q224 237 382 335.5t318 98.5zM1454 322h240q251 0 403 76t152 198q0 87 -60.5 142t-158.5 55q-107 0 -218.5 -73
t-298.5 -263l-129 -133q23 -2 70 -2zM2281 238l134 174q120 -90 272 -90q20 0 20 -21v-278q0 -23 -20 -23q-233 0 -406 238zM1309 1278l207 207l208 -207l-206 -207z" />
    <glyph glyph-name="uniFE82" unicode="&#x622;" horiz-adv-x="632" arabic-form="final" 
d="M152 1229h305l2 -723q0 -98 39.5 -141t134.5 -43q20 0 20 -21v-278q0 -23 -20 -23q-237 0 -358 108.5t-121 311.5zM172 1577q45 0 133 -38t133 -38q35 0 83 14.5t81 38.5l-2 -190q-67 -51 -158 -51q-49 0 -128 38t-117 38q-43 0 -71 -21t-34 -59h-145q0 127 60.5 197.5
t164.5 70.5z" />
    <glyph glyph-name="uniFE84" unicode="&#x623;" horiz-adv-x="632" arabic-form="final" 
d="M152 1229h305l2 -723q0 -98 39.5 -141t134.5 -43q20 0 20 -21v-278q0 -23 -20 -23q-237 0 -358 108.5t-121 311.5zM371 1507h190l-41 -166h-342q-78 0 -153 -24v162q57 20 81 22q20 4 35 4q-45 42 -45 109q0 80 58.5 134t144.5 54q107 0 184 -41v-157q-77 30 -133 30
q-36 0 -60 -17t-24 -46q0 -31 30.5 -47.5t74.5 -16.5z" />
    <glyph glyph-name="uniFE86" unicode="&#x624;" horiz-adv-x="1142" arabic-form="final" 
d="M559 1028q204 0 328 -132t137 -370l6 -174v-30h111q20 0 20 -21v-278q0 -23 -20 -23h-111q-8 -57 -31 -117q-130 -323 -751 -323v260q238 0 364 63q87 43 113 117h-131q-241 0 -382.5 134.5t-141.5 369.5q0 224 140 374t349 150zM725 504q-7 105 -55 159t-131 54
q-79 0 -133 -57t-54 -146q0 -102 71 -153.5t202 -51.5q51 0 71 2l39 2v4q-2 67 -10 187zM614 1374h209l-63 -207h-262q-110 0 -217 -34v200q85 28 112 33l-2 2q-41 41 -41 111q0 93 65.5 154t170.5 61q68 0 155 -43v-185q-79 29 -141 29q-39 0 -62.5 -16t-23.5 -45
q0 -36 31 -48q27 -9 69 -12z" />
    <glyph glyph-name="uniFE88" unicode="&#x625;" horiz-adv-x="632" arabic-form="final" 
d="M152 1485h305l2 -979q0 -99 38.5 -141.5t133.5 -42.5q20 0 20 -21l2 -278q0 -23 -20 -23q-237 0 -358 108.5t-121 311.5zM379 -373h190l-41 -168h-342q-78 0 -153 -24v164q53 18 82 24l35 4q-46 40 -46 105q0 80 58.5 134t144.5 54q108 0 185 -41v-158q-78 33 -134 33
q-36 0 -60 -18t-24 -47q0 -30 30 -46t75 -16z" />
    <glyph glyph-name="uniFE8A" unicode="&#x626;" horiz-adv-x="1398" arabic-form="final" 
d="M954 102v306q163 -51 256 -67.5t187 -16.5q20 0 20 -21v-280q0 -23 -20 -23h-11q-101 -209 -264 -317q-187 -123 -473 -123q-279 0 -439.5 147t-160.5 414q0 114 21 215t67 248h279q-86 -230 -86 -387q0 -161 89.5 -238.5t272.5 -77.5q178 0 309 64q83 37 138 96
q-87 22 -185 61zM1077 788h209l-63 -206h-262q-107 0 -218 -35v201q76 25 113 32l-2 2q-41 41 -41 111q0 93 65.5 154t170.5 61q68 0 155 -43v-184q-77 28 -141 28q-39 0 -62.5 -16t-23.5 -45q0 -35 31 -47q31 -10 69 -13z" />
    <glyph glyph-name="uniFE8B" unicode="&#x626;" horiz-adv-x="737" arabic-form="initial" 
d="M285 993h307q59 -383 59 -573q0 -203 -121 -311.5t-358 -108.5h-172q-20 0 -20 23l2 278q0 21 20 21h172q95 0 133.5 42.5t38.5 141.5q0 107 -61 487zM506 1311h209l-64 -207h-262q-106 0 -217 -35v201q84 27 113 33l-2 2q-41 41 -41 110q0 93 65 154t170 61
q69 0 156 -43v-184q-79 29 -141 29q-39 0 -62.5 -16.5t-23.5 -45.5q0 -35 30 -47q27 -9 70 -12z" />
    <glyph glyph-name="uniFE8C" unicode="&#x626;" horiz-adv-x="780" arabic-form="medial" 
d="M268 758h281q0 -139 -17 -289q-3 -36 -12 -70q46 -30 113 -53q77 -24 147 -24q21 0 21 -21v-278q0 -23 -21 -23q-119 0 -227 63q-68 39 -131 105q-49 -64 -125 -107q-110 -61 -297 -61q-20 0 -20 23v278q0 21 20 21q156 0 213 81q34 47 44.5 128t10.5 227zM492 1110h208
l-63 -207h-262q-106 0 -217 -35v201q85 28 112 33l-2 2q-41 41 -41 110q0 93 65.5 154.5t170.5 61.5q65 0 155 -44v-184q-79 29 -141 29q-39 0 -62.5 -16.5t-23.5 -45.5q0 -35 31 -47q27 -9 70 -12z" />
    <glyph glyph-name="uniFE8E" unicode="&#x627;" horiz-adv-x="632" arabic-form="final" 
d="M152 1485h305l2 -979q0 -99 38.5 -141.5t133.5 -42.5q20 0 20 -21l2 -278q0 -23 -20 -23q-237 0 -358 108.5t-121 311.5z" />
    <glyph glyph-name="uniFE90" unicode="&#x628;" horiz-adv-x="1736" arabic-form="final" 
d="M1276 758h280q0 -162 -18 -291l-18 -92q54 -28 77 -33q64 -20 140 -20q20 0 20 -21v-278q0 -23 -20 -23q-182 0 -326 141q-35 -43 -88 -78q-79 -52 -203 -61q-2 -2 -10 -2h-530q-263 0 -397 126.5t-134 373.5q0 157 49 401h279q-37 -182 -37 -315q0 -140 69 -202t244 -62
h406h6h18q106 6 150 86q25 48 34 130t9 220zM664 -307l206 207l209 -207l-207 -207z" />
    <glyph glyph-name="uniFE91" unicode="&#x628;" horiz-adv-x="571" arabic-form="initial" 
d="M115 993h305q59 -383 59 -573q0 -203 -121 -311.5t-358 -108.5q-20 0 -20 23l2 278q0 21 20 21q95 0 134.5 43t39.5 141q0 107 -61 487zM29 -317l207 206l208 -206l-206 -207z" />
    <glyph glyph-name="uniFE92" unicode="&#x628;" horiz-adv-x="671" arabic-form="medial" 
d="M211 758h281q0 -155 -19 -291l-18 -92q54 -28 77 -33q64 -20 140 -20q20 0 20 -21v-278q0 -23 -20 -23q-182 0 -326 141q-35 -43 -88 -78q-97 -63 -258 -63q-20 0 -20 23v278q0 21 20 21q121 0 168 86q25 48 34 130t9 220zM125 -317l207 206l209 -206l-207 -207z" />
    <glyph glyph-name="uniFE94" unicode="&#x629;" horiz-adv-x="1103" arabic-form="final" 
d="M682 1102h305v-658q0 -62 28.5 -92t90.5 -30q20 0 20 -21v-278q0 -23 -20 -23q-206 0 -307 94q-78 -41 -127 -59q-84 -35 -176 -35q-211 0 -329 112t-118 310q0 158 106 295.5t308 218.5q92 39 219 61v105zM463 659q-123 -83 -123 -202q0 -68 42.5 -108t119.5 -40
q94 0 184 33q-4 54 -4 84v319q-133 -27 -219 -86zM420 1442l205 207l157 -154l156 154l209 -207l-205 -205l-158 152l-155 -152z" />
    <glyph glyph-name="uniFE96" unicode="&#x62a;" horiz-adv-x="1736" arabic-form="final" 
d="M1276 758h280q0 -162 -18 -291l-18 -92q54 -28 77 -33q64 -20 140 -20q20 0 20 -21v-278q0 -23 -20 -23q-182 0 -326 141q-35 -43 -88 -78q-79 -52 -203 -61q-2 -2 -10 -2h-45h-6h-479q-263 0 -397 126.5t-134 373.5q0 157 49 401h279q-37 -182 -37 -315q0 -140 69 -202
t244 -62h406h6h18q106 6 150 86q25 48 34 130t9 220zM551 1118l205 207l157 -154l156 154l209 -207l-205 -205l-158 152l-155 -152z" />
    <glyph glyph-name="uniFE97" unicode="&#x62a;" horiz-adv-x="813" arabic-form="initial" 
d="M285 993h307q59 -383 59 -573q0 -203 -121 -311.5t-358 -108.5h-172q-20 0 -20 23l2 278q0 21 20 21h172q95 0 133.5 42.5t38.5 141.5q0 107 -61 487zM49 1335l205 207l158 -153l155 153l209 -207l-205 -205l-157 152l-156 -152z" />
    <glyph glyph-name="uniFE98" unicode="&#x62a;" horiz-adv-x="780" arabic-form="medial" 
d="M268 758h281q0 -139 -17 -289q-3 -36 -12 -70q46 -30 113 -53q77 -24 147 -24q21 0 21 -21v-278q0 -23 -21 -23q-119 0 -227 63q-68 39 -131 105q-49 -64 -125 -107q-110 -61 -297 -61q-20 0 -20 23v278q0 21 20 21q156 0 213 81q34 47 44.5 128t10.5 227zM43 1118
l205 207l158 -154l155 154l209 -207l-205 -205l-157 152l-156 -152z" />
    <glyph glyph-name="uniFE9A" unicode="&#x62b;" horiz-adv-x="1736" arabic-form="final" 
d="M1276 758h280q0 -162 -18 -291l-18 -92q54 -28 77 -33q64 -20 140 -20q20 0 20 -21v-278q0 -23 -20 -23q-182 0 -326 141q-35 -43 -88 -78q-79 -52 -203 -61q-2 -2 -10 -2h-530q-263 0 -397 126.5t-134 373.5q0 157 49 401h279q-37 -182 -37 -315q0 -140 69 -202t244 -62
h430q106 6 150 86q25 48 34 130t9 220zM526 1108l205 209l162 -162l162 162l207 -209l-205 -207l-164 160l-160 -160zM752 1395l141 143l145 -143l-143 -144z" />
    <glyph glyph-name="uniFE9B" unicode="&#x62b;" horiz-adv-x="817" arabic-form="initial" 
d="M285 993h307q59 -383 59 -573q0 -203 -121 -311.5t-358 -108.5h-172q-20 0 -20 23l2 278q0 21 20 21h172q95 0 133.5 42.5t38.5 141.5q0 107 -61 487zM45 1329l205 209l162 -162l161 162l207 -209l-205 -207l-163 160l-160 -160zM270 1616l142 143l145 -143l-143 -143z
" />
    <glyph glyph-name="uniFE9C" unicode="&#x62b;" horiz-adv-x="780" arabic-form="medial" 
d="M268 758h281q0 -139 -17 -289q-3 -36 -12 -70q46 -30 113 -53q77 -24 147 -24q21 0 21 -21v-278q0 -23 -21 -23q-119 0 -227 63q-68 39 -131 105q-49 -64 -125 -107q-110 -61 -297 -61q-20 0 -20 23v278q0 21 20 21q156 0 213 81q34 47 44.5 128t10.5 227zM27 1118
l204 209l162 -162l162 162l207 -209l-205 -207l-164 160l-160 -160zM252 1405l141 143l146 -143l-144 -143z" />
    <glyph glyph-name="uniFE9E" unicode="&#x62c;" horiz-adv-x="1333" arabic-form="final" 
d="M397 1104q60 0 119.5 -17t112.5 -46t106 -64.5t110 -74.5t114.5 -74t130 -65.5t147.5 -47.5l-88 -318q-49 0 -76 -2q2 -2 2 -6q6 -47 52.5 -57t205.5 -10q21 0 21 -21v-278q0 -23 -21 -23q-194 0 -297.5 92t-103.5 273v12q-27 -4 -127 -27q-126 -32 -225.5 -81.5
t-166.5 -124.5t-67 -160q0 -112 81 -172t239 -60q198 0 462 78v-297q-289 -96 -483 -96q-287 0 -441.5 126.5t-154.5 360.5q0 221 147.5 375t403.5 236q99 33 213 55q-39 18 -53 26q-31 18 -86 51.5t-84 50t-72 36.5t-81.5 28.5t-80.5 8.5q-94 0 -225 -52v279q131 86 266 86
zM526 37l207 207l209 -207l-207 -207z" />
    <glyph glyph-name="uniFE9F" unicode="&#x62c;" horiz-adv-x="1226" arabic-form="initial" 
d="M389 1028q80 0 157 -28t147 -72.5t140.5 -92t166.5 -94t198 -71.5l-88 -318q-93 -15 -174 -43t-140 -59.5t-118 -67t-122.5 -67.5t-138 -58t-180.5 -41.5t-235 -15.5q-22 0 -22 23v278q0 21 22 21q104 0 195.5 8t151.5 18t130 31t104 34.5t103 42t98 40.5l47 18
q-18 7 -100 47q-20 11 -80 45.5t-82 45.5t-66.5 30.5t-81 26t-77.5 6.5q-97 0 -225 -49v276q136 86 270 86zM289 -317l207 206l209 -206l-207 -207z" />
    <glyph glyph-name="uniFEA0" unicode="&#x62c;" horiz-adv-x="1292" arabic-form="medial" 
d="M389 1028q80 0 157 -28t147 -72.5t140.5 -92t166.5 -94t198 -71.5l-86 -312q24 -15 59 -24q47 -12 121 -12q21 0 21 -21v-278q0 -23 -21 -23q-176 0 -280 96q-82 79 -97 207q-2 -2 -6 -2q-72 -27 -151 -71.5t-142.5 -81t-146.5 -72t-200.5 -56t-266.5 -20.5q-22 0 -22 23
v278q0 21 22 21q104 0 195.5 8t151.5 18t130 31t104 34.5t103 42t98 40.5l47 18q-18 7 -100 47q-20 11 -80 45.5t-82 45.5t-66.5 30.5t-81 26t-77.5 6.5q-97 0 -225 -49v276q136 86 270 86zM301 -317l207 206l209 -206l-207 -207z" />
    <glyph glyph-name="uniFEA2" unicode="&#x62d;" horiz-adv-x="1333" arabic-form="final" 
d="M397 1104q60 0 119.5 -17t112.5 -46t106 -64.5t110 -74.5t114.5 -74t130 -65.5t147.5 -47.5l-88 -318q-49 0 -76 -2q2 -2 2 -6q6 -47 52.5 -57t205.5 -10q21 0 21 -21v-278q0 -23 -21 -23q-194 0 -297.5 92t-103.5 273v12q-27 -4 -127 -27q-126 -32 -225.5 -81.5
t-166.5 -124.5t-67 -160q0 -112 81 -172t239 -60q198 0 462 78v-297q-289 -96 -483 -96q-287 0 -441.5 126.5t-154.5 360.5q0 221 147.5 375t403.5 236q99 33 213 55q-39 18 -53 26q-31 18 -86 51.5t-84 50t-72 36.5t-81.5 28.5t-80.5 8.5q-94 0 -225 -52v279q131 86 266 86
z" />
    <glyph glyph-name="uniFEA3" unicode="&#x62d;" horiz-adv-x="1226" arabic-form="initial" 
d="M389 1028q80 0 157 -28t147 -72.5t140.5 -92t166.5 -94t198 -71.5l-88 -318q-93 -15 -174 -43t-140 -59.5t-118 -67t-122.5 -67.5t-138 -58t-180.5 -41.5t-235 -15.5q-22 0 -22 23v278q0 21 22 21q104 0 195.5 8t151.5 18t130 31t104 34.5t103 42t98 40.5l47 18
q-18 7 -100 47q-20 11 -80 45.5t-82 45.5t-66.5 30.5t-81 26t-77.5 6.5q-97 0 -225 -49v276q136 86 270 86z" />
    <glyph glyph-name="uniFEA4" unicode="&#x62d;" horiz-adv-x="1292" arabic-form="medial" 
d="M389 1028q80 0 157 -28t147 -72.5t140.5 -92t166.5 -94t198 -71.5l-86 -312q24 -15 59 -24q47 -12 121 -12q21 0 21 -21v-278q0 -23 -21 -23q-176 0 -280 96q-82 79 -97 207q-2 -2 -6 -2q-72 -27 -151 -71.5t-142.5 -81t-146.5 -72t-200.5 -56t-266.5 -20.5q-22 0 -22 23
v278q0 21 22 21q104 0 195.5 8t151.5 18t130 31t104 34.5t103 42t98 40.5l47 18q-18 7 -100 47q-20 11 -80 45.5t-82 45.5t-66.5 30.5t-81 26t-77.5 6.5q-97 0 -225 -49v276q136 86 270 86z" />
    <glyph glyph-name="uniFEA6" unicode="&#x62e;" horiz-adv-x="1333" arabic-form="final" 
d="M397 1104q60 0 119.5 -17t112.5 -46t106 -64.5t110 -74.5t114.5 -74t130 -65.5t147.5 -47.5l-88 -318q-49 0 -76 -2q2 -2 2 -6q6 -47 52.5 -57t205.5 -10q21 0 21 -21v-278q0 -23 -21 -23q-194 0 -297.5 92t-103.5 273v12q-27 -4 -127 -27q-126 -32 -225.5 -81.5
t-166.5 -124.5t-67 -160q0 -112 81 -172t239 -60q198 0 462 78v-297q-289 -96 -483 -96q-287 0 -441.5 126.5t-154.5 360.5q0 221 147.5 375t403.5 236q99 33 213 55q-39 18 -53 26q-31 18 -86 51.5t-84 50t-72 36.5t-81.5 28.5t-80.5 8.5q-94 0 -225 -52v279q131 86 266 86
zM664 1317l206 207l209 -207l-207 -207z" />
    <glyph glyph-name="uniFEA7" unicode="&#x62e;" horiz-adv-x="1226" arabic-form="initial" 
d="M389 1028q80 0 157 -28t147 -72.5t140.5 -92t166.5 -94t198 -71.5l-88 -318q-93 -15 -174 -43t-140 -59.5t-118 -67t-122.5 -67.5t-138 -58t-180.5 -41.5t-235 -15.5q-22 0 -22 23v278q0 21 22 21q104 0 195.5 8t151.5 18t130 31t104 34.5t103 42t98 40.5l47 18
q-18 7 -100 47q-20 11 -80 45.5t-82 45.5t-66.5 30.5t-81 26t-77.5 6.5q-97 0 -225 -49v276q136 86 270 86zM330 1366l207 207l208 -207l-206 -207z" />
    <glyph glyph-name="uniFEA8" unicode="&#x62e;" horiz-adv-x="1292" arabic-form="medial" 
d="M389 1028q80 0 157 -28t147 -72.5t140.5 -92t166.5 -94t198 -71.5l-86 -312q24 -15 59 -24q47 -12 121 -12q21 0 21 -21v-278q0 -23 -21 -23q-176 0 -280 96q-82 79 -97 207q-2 -2 -6 -2q-72 -27 -151 -71.5t-142.5 -81t-146.5 -72t-200.5 -56t-266.5 -20.5q-22 0 -22 23
v278q0 21 22 21q104 0 195.5 8t151.5 18t130 31t104 34.5t103 42t98 40.5l47 18q-18 7 -100 47q-20 11 -80 45.5t-82 45.5t-66.5 30.5t-81 26t-77.5 6.5q-97 0 -225 -49v276q136 86 270 86zM330 1366l207 207l208 -207l-206 -207z" />
    <glyph glyph-name="uniFEAA" unicode="&#x62f;" horiz-adv-x="1028" arabic-form="final" 
d="M8 70v311q122 -35 201.5 -47t169.5 -12q78 0 156 10l49 8l-4 16q-76 224 -152 637h309q53 -349 97 -489q53 -182 194 -182q21 0 21 -21v-278q0 -23 -21 -23q-158 0 -274 90q-20 16 -31 27q-84 -54 -156 -80q-100 -35 -215 -35q-92 0 -160.5 14.5t-183.5 53.5z" />
    <glyph glyph-name="uniFEAC" unicode="&#x630;" horiz-adv-x="1028" arabic-form="final" 
d="M8 70v311q122 -35 201.5 -47t169.5 -12q78 0 156 10l49 8l-4 16q-76 224 -152 637h309q53 -349 97 -489q53 -182 194 -182q21 0 21 -21v-278q0 -23 -21 -23q-158 0 -274 90q-20 16 -31 27q-84 -54 -156 -80q-100 -35 -215 -35q-92 0 -160.5 14.5t-183.5 53.5zM373 1329
l207 207l208 -207l-206 -207z" />
    <glyph glyph-name="uniFEAE" unicode="&#x631;" horiz-adv-x="749" arabic-form="final" 
d="M186 901h306q32 -245 47 -430q17 -192 20 -395q-54 63 -57 170l-6 334h28l17 -123q19 -135 209 -135q20 0 20 -21v-278q0 -23 -20 -23q-117 0 -183 66l-8 10v-31q0 -248 -143 -366.5t-426 -118.5v260q123 0 198.5 60t75.5 181q0 71 -3.5 143t-14 175t-15.5 150t-23 193
t-22 179z" />
    <glyph glyph-name="uniFEB0" unicode="&#x632;" horiz-adv-x="749" arabic-form="final" 
d="M186 901h306q32 -245 47 -430q17 -192 20 -395q-54 63 -57 170l-6 334h28l17 -123q19 -135 209 -135q20 0 20 -21v-278q0 -23 -20 -23q-117 0 -183 66l-8 10v-31q0 -248 -143 -366.5t-426 -118.5v260q123 0 198.5 60t75.5 181q0 71 -3.5 143t-14 175t-15.5 150t-23 193
t-22 179zM119 1249l207 207l209 -207l-207 -207z" />
    <glyph glyph-name="uniFEB2" unicode="&#x633;" horiz-adv-x="2736" arabic-form="final" 
d="M874 901h306q42 -283 53 -407q9 -64 12 -123q94 -49 203 -49q123 0 170 86q25 48 33 128t8 222h283q0 -162 -21 -291q-10 -71 -23 -115q76 -30 162 -30q123 0 170 86q25 48 33 128t8 222v143h283v-143q0 -162 -21 -291q-4 -28 -16 -92q42 -22 80 -33q64 -20 139 -20
q21 0 21 -21v-278q0 -23 -21 -23q-185 0 -328 143q-29 -39 -77 -77q-91 -66 -224 -66q-75 0 -143 27t-154 84l-24 18q-33 -38 -68 -63q-91 -66 -223 -66q-95 0 -197 51q-4 2 -53 29q-27 -217 -153 -352q-155 -168 -471 -168q-276 0 -424 145t-148 416q0 114 21 215t67 248
h279q-86 -230 -86 -387q0 -147 74 -231.5t221 -84.5q327 0 327 344q0 121 -17 265.5t-61 410.5z" />
    <glyph glyph-name="uniFEB3" unicode="&#x633;" horiz-adv-x="1808" arabic-form="initial" 
d="M182 758h281q0 -234 -43 -396q87 -40 186 -40q123 0 170 86q25 48 33 128t8 222h283q0 -162 -21 -291q-12 -78 -22 -115q6 -2 47 -14q69 -16 137 -16q92 0 132 41.5t40 138.5q0 129 -61 491h305q61 -392 61 -577q0 -188 -112 -301t-299 -113q-96 0 -217 41
q-83 29 -154 78q-25 -28 -59 -55q-91 -66 -224 -66q-75 0 -143 27t-154 84l-37 26q-40 -50 -77 -74q-92 -63 -242 -63q-20 0 -20 23v278q0 21 20 21q53 0 85.5 21t53.5 65q43 94 43 350z" />
    <glyph glyph-name="uniFEB4" unicode="&#x633;" horiz-adv-x="1896" arabic-form="medial" 
d="M182 758h281q0 -234 -43 -396q87 -40 186 -40q123 0 170 86q25 48 33 128t8 222h283q0 -162 -21 -291q-11 -78 -22 -115q77 -30 162 -30q123 0 170 86q25 48 33 128t8 222v143h282v-143q0 -168 -20 -291q-3 -21 -17 -90q48 -25 82 -35q64 -20 139 -20q21 0 21 -21v-278
q0 -23 -21 -23q-182 0 -327 145q-32 -44 -80 -79q-91 -66 -223 -66q-75 0 -143 27t-154 84l-25 18q-34 -39 -67 -63q-91 -66 -224 -66q-75 0 -143 27t-154 84l-37 26q-40 -50 -77 -74q-92 -63 -242 -63q-20 0 -20 23v278q0 21 20 21q53 0 85.5 21t53.5 65q43 94 43 350z" />
    <glyph glyph-name="uniFEB6" unicode="&#x634;" horiz-adv-x="2736" arabic-form="final" 
d="M874 901h306q42 -283 53 -407q9 -64 12 -123q94 -49 203 -49q123 0 170 86q25 48 33 128t8 222h283q0 -162 -21 -291q-10 -71 -23 -115q76 -30 162 -30q123 0 170 86q25 48 33 128t8 222v143h283v-143q0 -162 -21 -291q-4 -28 -16 -92q42 -22 80 -33q64 -20 139 -20
q21 0 21 -21v-278q0 -23 -21 -23q-185 0 -328 143q-29 -39 -77 -77q-91 -66 -224 -66q-75 0 -143 27t-154 84l-24 18q-33 -38 -68 -63q-91 -66 -223 -66q-95 0 -197 51q-4 2 -53 29q-27 -217 -153 -352q-155 -168 -471 -168q-276 0 -424 145t-148 416q0 114 21 215t67 248
h279q-86 -230 -86 -387q0 -147 74 -231.5t221 -84.5q327 0 327 344q0 121 -17 265.5t-61 410.5zM1425 1153l205 209l162 -162l162 162l207 -209l-205 -207l-164 160l-160 -160zM1651 1440l141 143l145 -143l-143 -144z" />
    <glyph glyph-name="uniFEB7" unicode="&#x634;" horiz-adv-x="1808" arabic-form="initial" 
d="M182 758h281q0 -234 -43 -396q87 -40 186 -40q123 0 170 86q25 48 33 128t8 222h283q0 -162 -21 -291q-12 -78 -22 -115q6 -2 47 -14q69 -16 137 -16q92 0 132 41.5t40 138.5q0 129 -61 491h305q61 -392 61 -577q0 -188 -112 -301t-299 -113q-96 0 -217 41
q-83 29 -154 78q-25 -28 -59 -55q-91 -66 -224 -66q-75 0 -143 27t-154 84l-37 26q-40 -50 -77 -74q-92 -63 -242 -63q-20 0 -20 23v278q0 21 20 21q53 0 85.5 21t53.5 65q43 94 43 350zM598 1151l205 209l162 -162l161 162l207 -209l-205 -207l-163 160l-160 -160z
M823 1438l142 143l145 -143l-143 -144z" />
    <glyph glyph-name="uniFEB8" unicode="&#x634;" horiz-adv-x="1896" arabic-form="medial" 
d="M182 758h281q0 -234 -43 -396q87 -40 186 -40q123 0 170 86q25 48 33 128t8 222h283q0 -162 -21 -291q-11 -78 -22 -115q77 -30 162 -30q123 0 170 86q25 48 33 128t8 222v143h282v-143q0 -168 -20 -291q-3 -21 -17 -90q48 -25 82 -35q64 -20 139 -20q21 0 21 -21v-278
q0 -23 -21 -23q-182 0 -327 145q-32 -44 -80 -79q-91 -66 -223 -66q-75 0 -143 27t-154 84l-25 18q-34 -39 -67 -63q-91 -66 -224 -66q-75 0 -143 27t-154 84l-37 26q-40 -50 -77 -74q-92 -63 -242 -63q-20 0 -20 23v278q0 21 20 21q53 0 85.5 21t53.5 65q43 94 43 350z
M584 1149l204 209l162 -162l162 162l207 -209l-205 -207l-164 160l-159 -160zM809 1436l141 143l146 -143l-144 -144z" />
    <glyph glyph-name="uniFEBA" unicode="&#x635;" horiz-adv-x="2691" arabic-form="final" 
d="M874 901h306l30 -227q9 -56 15 -105q99 99 172 164q206 187 373.5 277t324.5 90q202 0 331.5 -134.5t129.5 -338.5q0 -146 -57 -260l-2 -5q15 -7 55 -20q64 -20 139 -20q21 0 21 -21v-278q0 -23 -21 -23q-202 0 -354 174l-6 -4q-226 -170 -621 -170q-201 0 -442 51l-27 4
q-27 -199 -149 -327q-155 -168 -471 -168q-276 0 -424 145t-148 416q0 114 21 215t67 248h279q-86 -230 -86 -387q0 -147 74 -231.5t221 -84.5q327 0 327 344q0 121 -17 265.5t-61 410.5zM1411 336q118 -14 283 -14q249 0 402 74.5t153 191.5q0 87 -60 141.5t-159 54.5
q-109 0 -241 -69t-316 -223l-166 -142q70 -8 104 -14z" />
    <glyph glyph-name="uniFEBB" unicode="&#x635;" horiz-adv-x="2000" arabic-form="initial" 
d="M260 758h272q-22 -211 -51 -352l17 -7q131 148 260 281q224 230 385 325t325 95q202 0 331.5 -134.5t129.5 -338.5q0 -289 -224.5 -458t-619.5 -169q-355 0 -671 106q-8 2 -68 23q-28 -28 -59 -47q-119 -82 -287 -82q-20 0 -20 23v278q0 21 20 21q97 0 147.5 35.5
t71.5 111.5q20 82 41 289zM1067 322q249 0 402 74.5t153 191.5q0 87 -60.5 141.5t-158.5 54.5q-110 0 -227 -70.5t-302 -252.5l-118 -119q134 -20 311 -20z" />
    <glyph glyph-name="uniFEBC" unicode="&#x635;" horiz-adv-x="2066" arabic-form="medial" 
d="M260 758h272q-22 -211 -51 -352l17 -7q131 148 260 281q224 230 385 325t325 95q202 0 331.5 -134.5t129.5 -338.5q0 -289 -224.5 -458t-619.5 -169q-355 0 -671 106q-8 2 -68 23q-28 -28 -59 -47q-119 -82 -287 -82q-20 0 -20 23v278q0 21 20 21q97 0 147.5 35.5
t71.5 111.5q20 82 41 289zM1067 322q249 0 402 74.5t153 191.5q0 87 -60.5 141.5t-158.5 54.5q-110 0 -227 -70.5t-302 -252.5l-118 -119q134 -20 311 -20zM1661 238l133 174q120 -90 272 -90q21 0 21 -21v-278q0 -23 -21 -23q-232 0 -405 238z" />
    <glyph glyph-name="uniFEBE" unicode="&#x636;" horiz-adv-x="2691" arabic-form="final" 
d="M874 901h306l30 -227q9 -56 15 -105q99 99 172 164q206 187 373.5 277t324.5 90q202 0 331.5 -134.5t129.5 -338.5q0 -146 -57 -260l-2 -5q15 -7 55 -20q64 -20 139 -20q21 0 21 -21v-278q0 -23 -21 -23q-202 0 -354 174l-6 -4q-226 -170 -621 -170q-201 0 -442 51l-27 4
q-27 -199 -149 -327q-155 -168 -471 -168q-276 0 -424 145t-148 416q0 114 21 215t67 248h279q-86 -230 -86 -387q0 -147 74 -231.5t221 -84.5q327 0 327 344q0 121 -17 265.5t-61 410.5zM1411 336q118 -14 283 -14q249 0 402 74.5t153 191.5q0 87 -60 141.5t-159 54.5
q-109 0 -241 -69t-316 -223l-166 -142q70 -8 104 -14zM1282 1280l207 207l209 -207l-207 -207z" />
    <glyph glyph-name="uniFEBF" unicode="&#x636;" horiz-adv-x="2000" arabic-form="initial" 
d="M260 758h272q-22 -211 -51 -352l17 -7q131 148 260 281q224 230 385 325t325 95q202 0 331.5 -134.5t129.5 -338.5q0 -289 -224.5 -458t-619.5 -169q-355 0 -671 106q-8 2 -68 23q-28 -28 -59 -47q-119 -82 -287 -82q-20 0 -20 23v278q0 21 20 21q97 0 147.5 35.5
t71.5 111.5q20 82 41 289zM1067 322q249 0 402 74.5t153 191.5q0 87 -60.5 141.5t-158.5 54.5q-110 0 -227 -70.5t-302 -252.5l-118 -119q134 -20 311 -20zM643 1276l207 207l209 -207l-207 -207z" />
    <glyph glyph-name="uniFEC0" unicode="&#x636;" horiz-adv-x="2066" arabic-form="medial" 
d="M260 758h272q-22 -211 -51 -352l17 -7q131 148 260 281q224 230 385 325t325 95q202 0 331.5 -134.5t129.5 -338.5q0 -289 -224.5 -458t-619.5 -169q-355 0 -671 106q-8 2 -68 23q-28 -28 -59 -47q-119 -82 -287 -82q-20 0 -20 23v278q0 21 20 21q97 0 147.5 35.5
t71.5 111.5q20 82 41 289zM1067 322q249 0 402 74.5t153 191.5q0 87 -60.5 141.5t-158.5 54.5q-110 0 -227 -70.5t-302 -252.5l-118 -119q134 -20 311 -20zM1661 238l133 174q120 -90 272 -90q21 0 21 -21v-278q0 -23 -21 -23q-232 0 -405 238zM643 1276l207 207l209 -207
l-207 -207z" />
    <glyph glyph-name="uniFEC2" unicode="&#x637;" horiz-adv-x="1800" arabic-form="final" 
d="M299 1485h305v-410q0 -123 -39 -293q-11 -54 -20 -86q145 145 217 205q123 104 227 151.5t213 47.5q202 0 331.5 -134.5t129.5 -338.5q0 -289 -225.5 -458t-620.5 -169q-431 0 -809 90v316q212 -37 238 -41l53 61v1059zM801 322q249 0 402 74.5t153 191.5
q0 87 -60.5 141.5t-158.5 54.5q-108 0 -219 -73.5t-297 -266.5l-107 -112q153 -10 287 -10zM1395 238l133 174q120 -90 272 -90q21 0 21 -21v-278q0 -23 -21 -23q-232 0 -405 238z" />
    <glyph glyph-name="uniFEC3" unicode="&#x637;" horiz-adv-x="1619" arabic-form="initial" 
d="M195 1485h305v-410q0 -123 -39 -293l-19 -86q106 114 205 201q123 105 227.5 154t212.5 49q202 0 331.5 -134.5t129.5 -338.5q0 -289 -224 -458t-619 -169h-705q-20 0 -20 23v278q0 21 20 21h115l80 94v1069zM397 322h291q249 0 401 74.5t152 191.5q0 87 -59.5 141.5
t-157.5 54.5q-108 0 -219 -75.5t-301 -274.5z" />
    <glyph glyph-name="uniFEC4" unicode="&#x637;" horiz-adv-x="1675" arabic-form="medial" 
d="M195 1485h305v-410q0 -123 -39 -293l-19 -86q106 114 205 201q123 105 227.5 154t212.5 49q202 0 331.5 -134.5t129.5 -338.5q0 -289 -224 -458t-619 -169h-705q-20 0 -20 23v278q0 21 20 21h115l80 94v1069zM397 322h291q249 0 401 74.5t152 191.5q0 87 -59.5 141.5
t-157.5 54.5q-108 0 -219 -75.5t-301 -274.5zM1270 238l133 174q120 -90 272 -90q21 0 21 -21v-278q0 -23 -21 -23q-232 0 -405 238z" />
    <glyph glyph-name="uniFEC6" unicode="&#x638;" horiz-adv-x="1800" arabic-form="final" 
d="M299 1485h305v-410q0 -123 -39 -293q-11 -54 -20 -86q145 145 217 205q123 104 227 151.5t213 47.5q202 0 331.5 -134.5t129.5 -338.5q0 -289 -225.5 -458t-620.5 -169q-431 0 -809 90v316q212 -37 238 -41l53 61v1059zM801 322q249 0 402 74.5t153 191.5
q0 87 -60.5 141.5t-158.5 54.5q-108 0 -219 -73.5t-297 -266.5l-107 -112q153 -10 287 -10zM1395 238l133 174q120 -90 272 -90q21 0 21 -21v-278q0 -23 -21 -23q-232 0 -405 238zM760 1399l207 207l209 -207l-207 -207z" />
    <glyph glyph-name="uniFEC7" unicode="&#x638;" horiz-adv-x="1619" arabic-form="initial" 
d="M195 1485h305v-410q0 -123 -39 -293l-19 -86q106 114 205 201q123 105 227.5 154t212.5 49q202 0 331.5 -134.5t129.5 -338.5q0 -289 -224 -458t-619 -169h-705q-20 0 -20 23v278q0 21 20 21h115l80 94v1069zM397 322h291q249 0 401 74.5t152 191.5q0 87 -59.5 141.5
t-157.5 54.5q-108 0 -219 -75.5t-301 -274.5zM635 1399l207 207l209 -207l-207 -207z" />
    <glyph glyph-name="uniFEC8" unicode="&#x638;" horiz-adv-x="1675" arabic-form="medial" 
d="M195 1485h305v-410q0 -123 -39 -293l-19 -86q106 114 205 201q123 105 227.5 154t212.5 49q202 0 331.5 -134.5t129.5 -338.5q0 -289 -224 -458t-619 -169h-705q-20 0 -20 23v278q0 21 20 21h115l80 94v1069zM397 322h291q249 0 401 74.5t152 191.5q0 87 -59.5 141.5
t-157.5 54.5q-108 0 -219 -75.5t-301 -274.5zM1270 238l133 174q120 -90 272 -90q21 0 21 -21v-278q0 -23 -21 -23q-232 0 -405 238zM635 1399l207 207l209 -207l-207 -207z" />
    <glyph glyph-name="uniFECA" unicode="&#x639;" horiz-adv-x="1212" arabic-form="final" 
d="M664 1102q210 0 338 -106t128 -269q0 -150 -114 -270q-54 -60 -113 -103q52 -12 82 -16q106 -16 227 -16q21 0 21 -21v-278q0 -23 -21 -23q-153 0 -265 32t-216 97q-60 40 -84 59l-35 -20q-124 -69 -194 -132t-70 -126q0 -79 86 -121.5t242 -42.5q203 0 463 78v-297
q-277 -90 -484 -90q-288 0 -442 111t-154 321q0 209 283 385l76 47q-18 32 -58 96q-83 143 -167 240q-24 30 -27 33l-94 -45v278q150 92 306.5 145.5t285.5 53.5zM631 424q104 60 160.5 112.5t56.5 104.5q0 72 -58.5 114t-160.5 42q-48 0 -121 -13q-30 -5 -107 -26
q42 -47 97 -123q54 -77 133 -211z" />
    <glyph glyph-name="uniFECB" unicode="&#x639;" horiz-adv-x="1112" arabic-form="initial" 
d="M1083 408l-65 -322q-236 -42 -467.5 -64t-550.5 -22q-20 0 -20 23v278q0 21 20 21h205l-41 45q-86 109 -86 249q0 181 133.5 301.5t341.5 120.5q138 0 360 -82v-276q-196 55 -315 55q-106 0 -171 -47t-65 -125q0 -97 102.5 -160t240.5 -51l-3 -2l117 17q82 10 264 41z
" />
    <glyph glyph-name="uniFECC" unicode="&#x639;" horiz-adv-x="1216" arabic-form="medial" 
d="M662 1063q210 0 338 -106t128 -269q0 -133 -75 -248q-31 -47 -88 -104l18 -2q102 -12 227 -12q21 0 21 -21v-278q0 -23 -21 -23q-293 0 -485 106q-11 5 -43 23l-90 -39q-127 -51 -256.5 -70.5t-335.5 -19.5q-20 3 -20 23v278q0 21 20 21q204 0 360 18h11l-13 20
q-86 142 -170 240l-24 29l-92 -43v278q147 92 304 145.5t286 53.5zM768 438q78 78 78 166q0 72 -57.5 113t-161.5 41q-48 0 -121 -13q-30 -5 -107 -26q54 -60 95 -121q62 -90 149 -244q80 36 125 84z" />
    <glyph glyph-name="uniFECE" unicode="&#x63a;" horiz-adv-x="1212" arabic-form="final" 
d="M664 1102q210 0 338 -106t128 -269q0 -150 -114 -270q-54 -60 -113 -103q52 -12 82 -16q106 -16 227 -16q21 0 21 -21v-278q0 -23 -21 -23q-153 0 -265 32t-216 97q-60 40 -84 59l-35 -20q-124 -69 -194 -132t-70 -126q0 -79 86 -121.5t242 -42.5q203 0 463 78v-297
q-277 -90 -484 -90q-288 0 -442 111t-154 321q0 209 283 385l76 47q-18 32 -58 96q-83 143 -167 240q-24 30 -27 33l-94 -45v278q150 92 306.5 145.5t285.5 53.5zM631 424q104 60 160.5 112.5t56.5 104.5q0 72 -58.5 114t-160.5 42q-48 0 -121 -13q-30 -5 -107 -26
q42 -47 97 -123q54 -77 133 -211zM428 1411l207 207l209 -207l-207 -207z" />
    <glyph glyph-name="uniFECF" unicode="&#x63a;" horiz-adv-x="1112" arabic-form="initial" 
d="M1083 408l-65 -322q-236 -42 -467.5 -64t-550.5 -22q-20 0 -20 23v278q0 21 20 21h205l-41 45q-86 109 -86 249q0 181 133.5 301.5t341.5 120.5q138 0 360 -82v-276q-196 55 -315 55q-106 0 -171 -47t-65 -125q0 -97 102.5 -160t240.5 -51l-3 -2l117 17q82 10 264 41z
M317 1346l207 206l209 -206l-207 -207z" />
    <glyph glyph-name="uniFED0" unicode="&#x63a;" horiz-adv-x="1216" arabic-form="medial" 
d="M662 1063q210 0 338 -106t128 -269q0 -133 -75 -248q-31 -47 -88 -104l18 -2q102 -12 227 -12q21 0 21 -21v-278q0 -23 -21 -23q-293 0 -485 106q-11 5 -43 23l-90 -39q-127 -51 -256.5 -70.5t-335.5 -19.5q-20 3 -20 23v278q0 21 20 21q204 0 360 18h11l-13 20
q-86 142 -170 240l-24 29l-92 -43v278q147 92 304 145.5t286 53.5zM768 438q78 78 78 166q0 72 -57.5 113t-161.5 41q-48 0 -121 -13q-30 -5 -107 -26q54 -60 95 -121q62 -90 149 -244q80 36 125 84zM397 1366l207 207l209 -207l-207 -207z" />
    <glyph glyph-name="uniFED2" unicode="&#x641;" horiz-adv-x="1935" arabic-form="final" 
d="M1382 1049q202 0 334.5 -132t132.5 -323q0 -131 -100 -260q77 -12 186 -12q21 0 21 -21v-278q0 -23 -21 -23q-223 0 -512 88l-12 4l-39 -14q-245 -78 -536 -78q-21 3 -21 23v278q0 21 21 21q100 0 180 6l-2 2q-92 115 -92 266q0 123 56 226t162 165t242 62zM1503 422
q47 62 47 135q0 85 -52.5 138t-129.5 53q-78 0 -128 -54t-50 -135q0 -72 47 -137q45 -61 129 -90q89 29 137 90zM92 795h277q-29 -135 -29 -209q0 -140 69 -202t244 -62h211q21 0 21 -21v-278q0 -23 -21 -23h-284q-263 0 -395 126t-132 372q0 118 39 297zM1167 1356l207 207
l209 -207l-207 -207z" />
    <glyph glyph-name="uniFED3" unicode="&#x641;" horiz-adv-x="1095" arabic-form="initial" 
d="M539 1049q210 0 348.5 -139.5t138.5 -350.5q0 -253 -154 -406t-411 -153h-461q-20 0 -20 23v278q0 21 20 21h166q-2 2 -2 4q-98 134 -98 266q0 194 135.5 325.5t337.5 131.5zM446 322h17q121 0 188.5 61t67.5 170q0 85 -53.5 141t-133.5 56q-85 0 -136.5 -56.5
t-51.5 -142.5q0 -75 72 -182zM330 1356l207 207l208 -207l-206 -207z" />
    <glyph glyph-name="uniFED4" unicode="&#x641;" horiz-adv-x="1099" arabic-form="medial" 
d="M547 1049q202 0 334.5 -132t132.5 -323q0 -130 -101 -260q77 -12 187 -12q20 0 20 -21v-278q0 -23 -20 -23q-223 0 -512 88l-13 4l-38 -14q-245 -78 -537 -78q-20 3 -20 23v278q0 21 20 21q100 0 180 6l-2 2q-92 115 -92 266q0 123 56 226t162.5 165t242.5 62zM668 422
q47 62 47 135q0 84 -53 137.5t-130 53.5q-78 0 -128 -54t-50 -135q0 -72 47 -137q45 -61 129 -90q90 29 138 90zM336 1356l207 207l209 -207l-207 -207z" />
    <glyph glyph-name="uniFED6" unicode="&#x642;" horiz-adv-x="1628" arabic-form="final" 
d="M1047 1028q203 0 327 -132.5t137 -369.5l7 -172v-32h110q21 0 21 -21v-278q0 -23 -21 -23h-115q-8 -54 -32 -113q-66 -158 -249 -242.5t-484 -84.5q-699 0 -699 561q0 114 21 215t67 248h279q-86 -230 -86 -387q0 -185 111 -271t352 -86q153 0 257.5 41.5t149.5 110.5
l6 8h-127q-239 0 -380.5 134.5t-141.5 369.5q0 224 140.5 374t349.5 150zM1223 313l-13 191q-15 213 -184 213q-79 0 -132.5 -57t-53.5 -146q0 -103 69.5 -154t200.5 -51q52 0 72 2q27 0 41 2zM676 1352l205 207l157 -154l156 154l209 -207l-205 -205l-158 151l-155 -151z
" />
    <glyph glyph-name="uniFED7" unicode="&#x642;" horiz-adv-x="1095" arabic-form="initial" 
d="M539 1049q210 0 348.5 -139.5t138.5 -350.5q0 -253 -154 -406t-411 -153h-461q-20 0 -20 23v278q0 21 20 21h166q-2 2 -2 4q-98 134 -98 266q0 194 135.5 325.5t337.5 131.5zM446 322h17q121 0 188.5 61t67.5 170q0 85 -53.5 141t-133.5 56q-85 0 -136.5 -56.5
t-51.5 -142.5q0 -75 72 -182zM176 1352l205 207l158 -154l155 154l209 -207l-205 -205l-157 151l-156 -151z" />
    <glyph glyph-name="uniFED8" unicode="&#x642;" horiz-adv-x="1099" arabic-form="medial" 
d="M547 1049q202 0 334.5 -132t132.5 -323q0 -130 -101 -260q77 -12 187 -12q20 0 20 -21v-278q0 -23 -20 -23q-223 0 -512 88l-13 4l-38 -14q-245 -78 -537 -78q-20 3 -20 23v278q0 21 20 21q100 0 180 6l-2 2q-92 115 -92 266q0 123 56 226t162.5 165t242.5 62zM668 422
q47 62 47 135q0 84 -53 137.5t-130 53.5q-78 0 -128 -54t-50 -135q0 -72 47 -137q45 -61 129 -90q90 29 138 90zM176 1352l205 207l158 -154l155 154l209 -207l-205 -205l-157 151l-156 -151z" />
    <glyph glyph-name="uniFEDA" unicode="&#x643;" horiz-adv-x="1812" arabic-form="final" 
d="M90 795h277q-29 -135 -29 -209q0 -140 69 -202t244 -62h201h10h4q191 0 312 26q76 16 155 47v25l-2 1065h305l2 -979q0 -99 38.5 -141.5t133.5 -42.5q21 0 21 -21l2 -278q0 -23 -21 -23q-239 0 -360 109l-39 43q-102 -67 -213 -103q-143 -49 -338 -49h-10h-6h-268
q-263 0 -395 126t-132 372q0 118 39 297zM946 897h187l-64 -207h-262q-106 0 -217 -35v201l63 21q23 9 49 12l-2 2q-41 41 -41 110q0 93 65.5 154.5t170.5 61.5q69 0 156 -43v-185q-79 29 -142 29q-39 0 -62.5 -16.5t-23.5 -45.5q0 -34 29.5 -46.5t93.5 -12.5z" />
    <glyph glyph-name="uniFEDB" unicode="&#x643;" horiz-adv-x="1200" arabic-form="initial" 
d="M719 1628h436v-12l-696 -572l327 -139q186 -78 274.5 -189.5t88.5 -269.5q0 -211 -141.5 -328.5t-397.5 -117.5h-610q-20 0 -20 23v278q0 21 20 21h627q98 0 157.5 33t59.5 89q0 54 -49 99t-158 92l-524 231v211z" />
    <glyph glyph-name="uniFEDC" unicode="&#x643;" horiz-adv-x="1351" arabic-form="medial" 
d="M719 1628h436v-12l-696 -572l327 -139q186 -78 274.5 -189.5t88.5 -269.5q0 -211 -141.5 -328.5t-397.5 -117.5h-610q-20 0 -20 23v278q0 21 20 21h627q98 0 157.5 33t59.5 89q0 54 -49 99t-158 92l-524 231v211zM946 238l133 174q120 -90 273 -90q20 0 20 -21v-278
q0 -23 -20 -23q-233 0 -406 238z" />
    <glyph glyph-name="uniFEDE" unicode="&#x644;" horiz-adv-x="1456" arabic-form="final" 
d="M948 1485h305v-897h2v-115q0 -151 199 -151q21 0 21 -21v-278q0 -23 -21 -23q-132 0 -209 80q-9 -81 -33 -148q-59 -180 -207.5 -276t-379.5 -96q-276 0 -426 145t-150 416q0 114 21 215t67 248h279q-86 -230 -86 -387q0 -146 75.5 -231t223.5 -85q164 0 241.5 84.5
t77.5 259.5v1260z" />
    <glyph glyph-name="uniFEDF" unicode="&#x644;" horiz-adv-x="632" arabic-form="initial" 
d="M176 1485h305l-2 -1065q0 -203 -121 -311.5t-358 -108.5q-20 0 -20 23l2 278q0 21 20 21q95 0 133.5 42.5t38.5 141.5z" />
    <glyph glyph-name="uniFEE0" unicode="&#x644;" horiz-adv-x="665" arabic-form="medial" 
d="M184 1485h305l3 -979q0 -99 38.5 -141.5t133.5 -42.5q20 0 20 -21l2 -278q0 -23 -20 -23q-240 0 -361 109l-16 16l-19 -16q-63 -56 -125 -82.5t-145 -26.5q-20 0 -20 23v278q0 21 20 21q75 0 133 22q24 10 55 29q-2 14 -2 47z" />
    <glyph glyph-name="uniFEE2" unicode="&#x645;" horiz-adv-x="1382" arabic-form="final" 
d="M821 991q129 0 212.5 -74.5t135.5 -230.5l54 -164q32 -109 66.5 -154.5t92.5 -45.5q21 0 21 -21v-278q0 -23 -21 -23q-164 0 -268 109q-17 17 -45 53l-39 -162q-365 0 -545 115q-33 20 -61 45l-31 -29q-39 -48 -39 -158q0 -167 62 -536h-305q-62 394 -62 565
q0 219 117 342q71 77 174 107l6 30q19 89 58 175.5t96.5 163t141.5 124t179 47.5zM983 358l-49 154q-30 95 -62.5 137.5t-78.5 42.5q-59 0 -118.5 -73t-99.5 -205q89 -52 209 -78q89 -21 213 -27q-5 14 -14 49z" />
    <glyph glyph-name="uniFEE3" unicode="&#x645;" horiz-adv-x="1126" arabic-form="initial" 
d="M629 991q185 0 298 -166t150 -526l-194 -326q-215 0 -396 39q-138 26 -270 84l-4 -4q-77 -92 -213 -92q-20 3 -20 23v278q0 21 20 21q53 0 90.5 58.5t110.5 240.5q79 191 180.5 280.5t247.5 89.5zM559 319q135 -22 246 -22q-8 84 -25 164q-24 118 -67.5 174.5t-98.5 56.5
q-74 0 -124 -61t-113 -221l-15 -35q102 -39 197 -56z" />
    <glyph glyph-name="uniFEE4" unicode="&#x645;" horiz-adv-x="1157" arabic-form="medial" 
d="M596 991q129 0 212.5 -74.5t135.5 -230.5l53 -164q32 -108 67 -154t93 -46q21 0 21 -21v-278q0 -23 -21 -23q-164 0 -268 109q-17 17 -45 53l-39 -162q-173 0 -311 27q-139 28 -230 84q-39 -30 -55 -41q-101 -70 -209 -70q-20 0 -20 23v278q0 21 20 21q60 0 109 12v24
q0 69 19 151t60 167.5t97 155.5t137.5 114.5t173.5 44.5zM758 358l-49 154q-30 95 -62.5 137.5t-79.5 42.5q-59 0 -118 -73t-99 -205q89 -52 209 -78q89 -21 213 -27q-5 14 -14 49z" />
    <glyph glyph-name="uniFEE6" unicode="&#x646;" horiz-adv-x="1445" arabic-form="final" 
d="M874 901h306q42 -283 53 -407l6 -37q19 -135 209 -135q20 0 20 -21v-278q0 -23 -20 -23q-116 0 -182 66l-21 24q-21 -224 -153 -362q-155 -168 -471 -168q-276 0 -424 145t-148 416q0 114 21 215t67 248h279q-86 -230 -86 -387q0 -147 74 -231.5t221 -84.5q327 0 327 344
q0 121 -17 265.5t-61 410.5zM401 1006l207 206l209 -206l-207 -207z" />
    <glyph glyph-name="uniFEE7" unicode="&#x646;" horiz-adv-x="571" arabic-form="initial" 
d="M115 993h305q59 -383 59 -573q0 -203 -121 -311.5t-358 -108.5q-20 0 -20 23l2 278q0 21 20 21q95 0 134.5 43t39.5 141q0 107 -61 487zM47 1329l207 207l209 -207l-207 -207z" />
    <glyph glyph-name="uniFEE8" unicode="&#x646;" horiz-adv-x="671" arabic-form="medial" 
d="M211 758h281q0 -155 -19 -291l-18 -92q54 -28 77 -33q64 -20 140 -20q20 0 20 -21v-278q0 -23 -20 -23q-182 0 -326 141q-35 -43 -88 -78q-97 -63 -258 -63q-20 0 -20 23v278q0 21 20 21q121 0 168 86q25 48 34 130t9 220zM133 1114l207 207l209 -207l-207 -207z" />
    <glyph glyph-name="uniFEE9" unicode="&#x647;" horiz-adv-x="1693" arabic-form="isolated" 
d="M606 1157v287q498 0 758 -207.5t260 -601.5q0 -159 -76 -387l-278 -275q-164 -3 -326 43q-130 40 -227 84q-94 -43 -189 -65q-123 -33 -229 -33q-145 0 -279 45v311q138 -36 261 -36h24l-8 8q-92 115 -92 266q0 123 56.5 226t163.5 165t243 62q200 0 332.5 -132
t132.5 -323q0 -131 -103 -262q-8 -8 -10 -15l37 -6q106 -16 203 -16q67 164 67 328q0 83 -26.5 159.5t-84 145t-140.5 119.5t-203.5 80.5t-266.5 29.5zM786 422q50 62 50 135q0 84 -54 137.5t-131 53.5q-78 0 -128 -54t-50 -135q0 -72 47 -137q45 -61 131 -90q92 36 135 90z
" />
    <glyph glyph-name="uniFEEA" unicode="&#x647;" horiz-adv-x="1103" arabic-form="final" 
d="M682 1102h305v-658q0 -62 28.5 -92t90.5 -30q20 0 20 -21v-278q0 -23 -20 -23q-206 0 -307 94q-78 -41 -127 -59q-84 -35 -176 -35q-211 0 -329 112t-118 310q0 158 106 295.5t308 218.5q92 39 219 61v105zM463 659q-123 -83 -123 -202q0 -68 42.5 -108t119.5 -40
q94 0 184 33q-4 54 -4 84v319q-133 -27 -219 -86z" />
    <glyph glyph-name="uniFEEB" unicode="&#x647;" horiz-adv-x="1574" arabic-form="initial" 
d="M487 1157l-2 287q498 0 758 -207.5t260 -601.5q0 -168 -73 -387l-279 -275q-164 -3 -326 43q-128 40 -229 84q-30 -13 -59 -22q-245 -78 -537 -78q-20 3 -20 23v278q0 21 20 21q100 0 180 6l-2 2q-92 115 -92 266q0 123 56 226t162.5 165t242.5 62q202 0 334.5 -132
t132.5 -323q0 -131 -103 -262q-7 -8 -10 -15l37 -6q106 -16 203 -16q67 164 67 328q0 83 -26.5 159.5t-84 145t-140.5 119.5t-203.5 80.5t-266.5 29.5zM668 422q47 62 47 135q0 84 -53 137.5t-130 53.5q-78 0 -128 -54t-50 -135q0 -72 47 -137q45 -61 129 -90q90 29 138 90z
" />
    <glyph glyph-name="uniFEEC" unicode="&#x647;" horiz-adv-x="1122" arabic-form="medial" 
d="M512 1180h254q131 -127 206 -273.5t75 -292.5q0 -153 -86 -268l-9 -12h11q79 -12 159 -12q21 0 21 -23v-279q0 -20 -21 -20q-46 0 -84 6q-12 3 -63 19q27 -38 37 -68q18 -49 18 -96q0 -131 -100.5 -216t-255.5 -85q-121 0 -220 33t-167 92.5t-113 135t-68 167.5l-4 14
q-35 -2 -102 -2q-20 0 -20 23v278q0 21 20 21h78q10 96 26 176q46 198 151.5 375.5t256.5 306.5zM367 344q208 35 291 100.5t83 163.5q0 109 -51 189t-94 131q-54 -64 -90 -121q-105 -171 -141 -363q-14 -80 -15 -102q6 2 17 2zM395 39q16 -36 41 -68q83 -112 203 -112
q61 0 96 27t35 77q0 52 -31 100q-16 31 -55 70q-119 -58 -289 -94z" />
    <glyph glyph-name="uniFEEE" unicode="&#x648;" horiz-adv-x="1142" arabic-form="final" 
d="M559 1028q204 0 328 -132t137 -370l6 -174v-30h111q20 0 20 -21v-278q0 -23 -20 -23h-111q-8 -57 -31 -117q-130 -323 -751 -323v260q238 0 364 63q87 43 113 117h-131q-241 0 -382.5 134.5t-141.5 369.5q0 224 140 374t349 150zM725 504q-7 105 -55 159t-131 54
q-79 0 -133 -57t-54 -146q0 -102 71 -153.5t202 -51.5q51 0 71 2l39 2v4q-2 67 -10 187z" />
    <glyph glyph-name="uniFEF0" unicode="&#x649;" horiz-adv-x="1398" arabic-form="final" 
d="M954 102v306q163 -51 256 -67.5t187 -16.5q20 0 20 -21v-280q0 -23 -20 -23h-11q-101 -209 -264 -317q-187 -123 -473 -123q-279 0 -439.5 147t-160.5 414q0 114 21 215t67 248h279q-86 -230 -86 -387q0 -161 89.5 -238.5t272.5 -77.5q178 0 309 64q83 37 138 96
q-87 22 -185 61z" />
    <glyph glyph-name="uniFEF2" unicode="&#x64a;" horiz-adv-x="1398" arabic-form="final" 
d="M954 102v306q163 -51 256 -67.5t187 -16.5q20 0 20 -21v-280q0 -23 -20 -23h-11q-101 -209 -264 -317q-187 -123 -473 -123q-279 0 -439.5 147t-160.5 414q0 114 21 215t67 248h279q-86 -230 -86 -387q0 -161 89.5 -238.5t272.5 -77.5q178 0 309 64q83 37 138 96
q-87 22 -185 61zM481 -727l207 207l148 -142l143 142l209 -207l-205 -207l-147 143l-144 -143z" />
    <glyph glyph-name="uniFEF3" unicode="&#x64a;" horiz-adv-x="737" arabic-form="initial" 
d="M285 993h307q59 -383 59 -573q0 -203 -121 -311.5t-358 -108.5h-172q-20 0 -20 23l2 278q0 21 20 21h172q95 0 133.5 42.5t38.5 141.5q0 107 -61 487zM-35 -315l207 206l147 -141l144 141l209 -206l-205 -207l-148 143l-143 -143z" />
    <glyph glyph-name="uniFEF4" unicode="&#x64a;" horiz-adv-x="780" arabic-form="medial" 
d="M268 758h281q0 -139 -17 -289q-3 -36 -12 -70q46 -30 113 -53q77 -24 147 -24q21 0 21 -21v-278q0 -23 -21 -23q-119 0 -227 63q-68 39 -131 105q-49 -64 -125 -107q-110 -61 -297 -61q-20 0 -20 23v278q0 21 20 21q156 0 213 81q34 47 44.5 128t10.5 227zM10 -317
l207 206l148 -141l143 141l209 -206l-205 -207l-147 143l-144 -143z" />
    <glyph glyph-name=".notdef" horiz-adv-x="1024" 
d="M0 0v1485h1024v-1485h-1024zM489 741l-450 684v-1366zM532 741l453 -682v1366zM512 709l-444 -670h886zM68 1446l444 -672l442 672h-886z" />
    <glyph glyph-name=".null" 
 />
    <glyph glyph-name="nonmarkingreturn" horiz-adv-x="682" 
 />
    <glyph glyph-name="space" unicode=" " horiz-adv-x="440" 
 />
    <glyph glyph-name="exclam" unicode="!" horiz-adv-x="626" 
d="M426 473h-225l-103 606v406h430v-406zM504 0h-381v365h381v-365z" />
    <glyph glyph-name="quotedbl" unicode="&#x22;" horiz-adv-x="851" 
d="M465 1485h340l-45 -520h-250zM47 1485h340l-45 -520h-250z" />
    <glyph glyph-name="numbersign" unicode="#" horiz-adv-x="1691" 
d="M123 1171h305l45 314h322l-45 -314h313l45 314h322l-46 -314h304l-37 -280h-308l-45 -309h306l-35 -283h-312l-43 -299h-321l43 299h-313l-43 -299h-322l43 299h-297l37 283h301l45 309h-299zM709 891l-45 -309h313l45 309h-313z" />
    <glyph glyph-name="dollar" unicode="$" horiz-adv-x="1343" 
d="M602 1669h139v-164q229 -21 374.5 -156.5t141.5 -332.5l-327 -4q4 96 -48 158t-141 73v-354l9 -2q60 -14 102.5 -26t102 -33t101 -43.5t86.5 -58t72.5 -75.5t45.5 -96t18 -121q0 -100 -45 -184t-121 -140t-171 -90t-200 -43v-206h-139v206q-239 18 -391 161t-148 364
l328 4q-4 -123 53 -191.5t158 -76.5v378l-74 17q-83 17 -157 52t-137.5 88.5t-100.5 133t-37 174.5q0 79 29.5 147t78.5 115t115.5 82.5t137 55t145.5 26.5v162zM954 406q0 68 -54 108.5t-159 69.5v-348q93 6 153 52.5t60 117.5zM412 1090q0 -63 44 -105.5t146 -64.5v327
q-85 -5 -137.5 -48t-52.5 -109z" />
    <glyph glyph-name="percent" unicode="%" horiz-adv-x="2199" 
d="M397 803q131 0 131 262q0 264 -131 264q-135 0 -135 -264q0 -262 135 -262zM397 633q-181 0 -273.5 112.5t-92.5 319.5t93 320.5t273 113.5q178 0 270.5 -113.5t92.5 -320.5t-92.5 -319.5t-270.5 -112.5zM758 0h-340l1024 1485h340zM1769 154q132 0 132 262
q0 264 -132 264q-135 0 -135 -264q0 -262 135 -262zM1769 -16q-181 0 -273.5 112.5t-92.5 319.5t93 320.5t273 113.5q178 0 270.5 -113.5t92.5 -320.5t-92.5 -319.5t-270.5 -112.5z" />
    <glyph glyph-name="ampersand" unicode="&#x26;" horiz-adv-x="1439" 
d="M508 -27q-152 0 -273 56.5t-190.5 162t-69.5 242.5q0 78 29 147t80 121t109 90.5t126 67.5q-80 98 -116.5 171t-36.5 147q0 146 122.5 238.5t321.5 92.5q87 0 166.5 -21t145 -61.5t104.5 -108.5t39 -155q0 -123 -77.5 -221.5t-190.5 -148.5l155 -177q54 144 62 252h329
q-25 -257 -176 -497l326 -371h-436l-111 127q-197 -154 -438 -154zM539 248q119 0 227 90l-268 311q-176 -79 -176 -205q0 -95 59.5 -145.5t157.5 -50.5zM516 1159q0 -59 117 -180q63 33 93 78t30 86q0 49 -36.5 76.5t-86.5 27.5q-52 0 -84.5 -23.5t-32.5 -64.5z" />
    <glyph glyph-name="quotesingle" unicode="'" horiz-adv-x="434" 
d="M47 1485h340l-45 -520h-250z" />
    <glyph glyph-name="parenleft" unicode="(" horiz-adv-x="649" 
d="M51 563q0 141 27.5 283t73 261t93 211.5t99.5 166.5h322q-121 -192 -197 -433.5t-76 -488.5q0 -244 77 -486.5t196 -434.5h-322q-52 75 -100 167.5t-93.5 210.5t-72.5 260t-27 283z" />
    <glyph glyph-name="parenright" unicode=")" horiz-adv-x="649" 
d="M598 563q0 -140 -27.5 -282t-73.5 -260.5t-94 -211.5t-100 -167h-319q119 190 194.5 433t75.5 488q0 246 -75.5 488.5t-194.5 433.5h319q52 -74 100 -167t94 -212t73.5 -261t27.5 -282z" />
    <glyph glyph-name="asterisk" unicode="*" horiz-adv-x="731" 
d="M449 1485v-205l192 74l74 -193l-197 -69l119 -166l-164 -121l-125 172l-117 -172l-174 117l121 170l-198 69l73 193l189 -74v205h207z" />
    <glyph glyph-name="plus" unicode="+" horiz-adv-x="1388" 
d="M854 0h-317v410h-435v284h435v408h317v-408h432v-284h-432v-410z" />
    <glyph glyph-name="comma" unicode="," horiz-adv-x="575" 
d="M98 0v365h379v-385l-209 -304h-200l178 324h-148z" />
    <glyph glyph-name="hyphen" unicode="-" horiz-adv-x="899" 
d="M811 401h-723v285h723v-285z" />
    <glyph glyph-name="period" unicode="." horiz-adv-x="577" 
d="M479 0h-381v365h381v-365z" />
    <glyph glyph-name="slash" unicode="/" horiz-adv-x="937" 
d="M338 0h-338l600 1485h338z" />
    <glyph glyph-name="zero" unicode="0" horiz-adv-x="1466" 
d="M733 -27q-309 0 -473 205t-164 567q0 360 164 562t473 202q308 0 471.5 -202t163.5 -562q0 -362 -164 -567t-471 -205zM733 223q134 0 211.5 130.5t77.5 391.5q0 259 -77 387t-212 128q-136 0 -213.5 -127.5t-77.5 -387.5q0 -261 77.5 -391.5t213.5 -130.5z" />
    <glyph glyph-name="one" unicode="1" horiz-adv-x="849" 
d="M696 0h-336v997h-337v248q183 4 274.5 59.5t142.5 180.5h256v-1485z" />
    <glyph glyph-name="two" unicode="2" horiz-adv-x="1249" 
d="M645 1509q239 0 388 -111.5t149 -305.5q0 -223 -178.5 -419.5t-526.5 -396.5h711v-276h-1141v276q38 28 115 83q299 217 417 319q234 204 260 353q3 20 3 40q0 92 -58.5 140.5t-148.5 48.5q-48 0 -89.5 -15.5t-77.5 -49.5t-55.5 -97t-15.5 -148h-334q-7 259 155.5 409
t426.5 150z" />
    <glyph glyph-name="three" unicode="3" horiz-adv-x="1310" 
d="M645 223q112 0 175 53t63 154q0 95 -86 143t-234 48h-98v278h88q149 0 230 49t81 146q0 78 -65 122t-154 44q-230 0 -260 -207h-334q10 95 48 172t95 129.5t133 87.5t159.5 51t175.5 16q102 0 196 -23t172.5 -68.5t126 -122t47.5 -173.5q0 -109 -60.5 -199t-146.5 -139
q106 -43 169 -143.5t63 -208.5q0 -111 -48.5 -200t-131 -144.5t-187.5 -85t-223 -29.5q-90 0 -172.5 17.5t-157 56t-131.5 95.5t-95.5 139.5t-49.5 183.5h336q8 -63 34 -111t64.5 -76t83 -41.5t94.5 -13.5z" />
    <glyph glyph-name="four" unicode="4" horiz-adv-x="1296" 
d="M739 1044l-352 -434h352v434zM1282 610v-297h-205v-313h-338v313h-723v265l748 907h313v-875h205z" />
    <glyph glyph-name="five" unicode="5" horiz-adv-x="1372" 
d="M682 223q116 0 189 70t73 196q0 129 -75 200t-181 71q-175 0 -254 -148l-309 31l104 842h994v-275h-713l-35 -278q53 36 134 57t161 21q102 0 195 -33.5t166.5 -96t117 -163t43.5 -225.5q0 -124 -48.5 -224t-132.5 -163.5t-192.5 -97.5t-232.5 -34q-237 0 -400.5 126.5
t-199.5 357.5h326q22 -122 93.5 -178t176.5 -56z" />
    <glyph glyph-name="six" unicode="6" horiz-adv-x="1339" 
d="M436 487q0 -121 65.5 -192.5t176.5 -71.5q110 0 172.5 71t62.5 193q0 119 -63 192t-172 73q-111 0 -176.5 -71.5t-65.5 -193.5zM698 1266q-123 0 -196.5 -93.5t-69.5 -275.5q122 109 320 109q100 0 192.5 -39t162 -106.5t111.5 -165t42 -208.5q0 -232 -163 -373
t-419 -141q-124 0 -224 37t-169 102.5t-115.5 158t-68 201.5t-21.5 235q0 133 22.5 250t72 219.5t122.5 175.5t180.5 115t239.5 42q125 0 224.5 -33.5t162.5 -92.5t98 -135.5t41 -166.5h-332q-11 98 -68.5 141.5t-144.5 43.5z" />
    <glyph glyph-name="seven" unicode="7" horiz-adv-x="1073" 
d="M-6 1210v275h1112v-275q-161 -136 -269 -258.5t-185.5 -266.5t-113.5 -310t-40 -375h-361q0 199 45 379t129 329.5t193 273t248 228.5h-758z" />
    <glyph glyph-name="eight" unicode="8" horiz-adv-x="1400" 
d="M700 -27q-173 0 -309.5 54t-216.5 161t-80 252q0 112 46 201.5t155 157.5q-82 57 -121 128t-39 183q0 171 156 285t409 114t408.5 -114t155.5 -285q0 -111 -39 -182t-119 -129q109 -68 155 -157.5t46 -201.5q0 -145 -80.5 -252t-217 -161t-309.5 -54zM700 223
q121 0 191 66.5t70 163.5q0 96 -69 158.5t-192 62.5t-191.5 -62.5t-68.5 -158.5q0 -97 69.5 -163.5t190.5 -66.5zM700 895q112 0 171 50.5t59 131.5q0 83 -59 133t-171 50t-170.5 -50t-58.5 -133q0 -81 59 -131.5t170 -50.5z" />
    <glyph glyph-name="nine" unicode="9" horiz-adv-x="1333" 
d="M889 995q0 122 -65 193.5t-175 71.5t-172.5 -71.5t-62.5 -193.5q0 -119 63 -191.5t172 -72.5q111 0 175.5 70.5t64.5 193.5zM627 219q124 0 198 93.5t70 273.5q-122 -109 -322 -109q-135 0 -250 65.5t-185 185t-70 267.5q0 233 162 373.5t419 140.5q124 0 224 -37
t169 -102.5t115.5 -158t68 -201t21.5 -234.5q0 -133 -22.5 -250.5t-72 -219.5t-122.5 -175.5t-180.5 -115.5t-239.5 -42q-125 0 -224.5 33.5t-162.5 92.5t-98 135.5t-41 166.5h332q21 -182 211 -182z" />
    <glyph glyph-name="colon" unicode=":" horiz-adv-x="577" 
d="M479 737h-381v365h381v-365zM479 0h-381v365h381v-365z" />
    <glyph glyph-name="semicolon" unicode=";" horiz-adv-x="577" 
d="M479 737h-381v365h381v-365zM98 0v365h379v-385l-209 -304h-200l178 324h-148z" />
    <glyph glyph-name="less" unicode="&#x3c;" horiz-adv-x="1388" 
d="M135 690l1098 418v-315l-723 -244l723 -248v-313l-1098 418v284z" />
    <glyph glyph-name="equal" unicode="=" horiz-adv-x="1388" 
d="M1233 606h-1077v285h1077v-285zM1233 203h-1077v282h1077v-282z" />
    <glyph glyph-name="greater" unicode="&#x3e;" horiz-adv-x="1388" 
d="M1253 690v-284l-1097 -418v313l723 248l-723 244v315z" />
    <glyph glyph-name="question" unicode="?" horiz-adv-x="1277" 
d="M668 1509q113 0 213.5 -23t181 -68t127.5 -119.5t47 -168.5q0 -71 -20.5 -128t-61.5 -100t-87 -73.5t-112 -62.5q-61 -28 -96 -48t-65.5 -48t-43 -63t-12.5 -83v-53h-338q-6 31 -6 98q0 74 18 131t54 99t76 71t98 58q22 11 63 29t69 31t57.5 31t45 39.5t15.5 45.5
q0 62 -61.5 98.5t-165.5 36.5q-136 0 -217.5 -59.5t-81.5 -178.5h-328q0 239 173 373.5t458 134.5zM760 0h-381v365h381v-365z" />
    <glyph glyph-name="at" unicode="@" horiz-adv-x="1691" 
d="M1235 311q-91 0 -156.5 39.5t-93.5 120.5q-94 -162 -274 -162q-68 0 -128 23t-107.5 68.5t-75 120t-27.5 169.5q0 102 38 193t99 153.5t138.5 98.5t154.5 36q161 0 231 -122l17 90h223l-80 -459q-7 -56 -8.5 -101t17.5 -73.5t61 -28.5q76 0 132 95.5t56 250.5
q0 248 -155.5 384t-413.5 136q-186 0 -332 -83t-225.5 -227.5t-79.5 -323.5q0 -263 157 -426.5t410 -163.5q195 0 385 96l59 -141q-206 -101 -446 -101q-213 0 -379.5 94t-258 263t-91.5 385q0 160 61.5 302.5t168 245t256.5 162.5t319 60q146 0 274 -40t229.5 -118
t160.5 -205.5t59 -290.5q0 -121 -31 -221t-83 -164.5t-119.5 -99.5t-141.5 -35zM825 940q-84 0 -136 -73.5t-52 -176.5q0 -153 127 -153q85 0 134.5 75t49.5 185q0 66 -33 104.5t-90 38.5z" />
    <glyph glyph-name="A" unicode="A" horiz-adv-x="1484" 
d="M-10 0l559 1485h385l561 -1485h-381l-90 264h-573l-89 -264h-372zM739 1114l-192 -565h383z" />
    <glyph glyph-name="B" unicode="B" horiz-adv-x="1462" 
d="M135 0v1485h647q104 0 185 -10t155 -36t122.5 -69t77 -111t28.5 -159q0 -199 -176 -309q235 -83 235 -334q0 -457 -600 -457h-674zM485 631v-336h328q111 0 168 44.5t57 123.5t-57 123.5t-168 44.5h-328zM485 1190v-299h310q91 0 140.5 40.5t49.5 110.5t-49.5 109
t-140.5 39h-310z" />
    <glyph glyph-name="C" unicode="C" horiz-adv-x="1536" 
d="M1151 553h344q-42 -260 -235 -420t-472 -160q-346 0 -544.5 206.5t-198.5 563.5q0 352 203 559t551 207q275 0 462 -161t224 -418h-344q-28 145 -125 218t-230 73q-160 0 -265 -128.5t-105 -349.5q0 -228 105 -354.5t270 -126.5q49 0 92.5 8.5t87.5 29.5t78.5 53
t61.5 83.5t40 116.5z" />
    <glyph glyph-name="D" unicode="D" horiz-adv-x="1536" 
d="M1122 743q0 82 -14 148t-38 112.5t-61 80.5t-77 54t-92.5 32t-100.5 16t-108 4h-146v-895h146q86 0 150.5 8.5t132 36.5t110.5 75.5t70.5 130.5t27.5 197zM135 1485h490q151 0 277 -22.5t237.5 -76.5t188 -138t121 -212t44.5 -293t-44.5 -293.5t-121 -212.5t-188 -138
t-237.5 -76.5t-277 -22.5h-490v1485z" />
    <glyph glyph-name="E" unicode="E" horiz-adv-x="1357" 
d="M135 0v1485h1139v-307h-789v-260h746v-310h-746v-299h789v-309h-1139z" />
    <glyph glyph-name="F" unicode="F" horiz-adv-x="1226" 
d="M135 0v1485h1094v-307h-744v-260h699v-310h-699v-608h-350z" />
    <glyph glyph-name="G" unicode="G" horiz-adv-x="1603" 
d="M803 1509q255 0 433.5 -126t231.5 -363h-344q-28 85 -110 143t-215 58q-168 0 -275.5 -123.5t-107.5 -349.5q0 -231 104.5 -358.5t284.5 -127.5q51 0 97 7.5t89 26.5t74.5 47t50.5 71t19 98v29h-359v286h709v-827h-268l-11 164q-72 -98 -183 -144.5t-271 -46.5
q-327 0 -517 209t-190 566q0 231 95.5 404.5t266.5 265t396 91.5z" />
    <glyph glyph-name="H" unicode="H" horiz-adv-x="1581" 
d="M1096 1485h350v-1485h-350v608h-611v-608h-350v1485h350v-567h611v567z" />
    <glyph glyph-name="I" unicode="I" horiz-adv-x="618" 
d="M485 1485v-1485h-350v1485h350z" />
    <glyph glyph-name="J" unicode="J" horiz-adv-x="1312" 
d="M831 567v918h351v-918q0 -280 -149.5 -437t-430.5 -157q-141 0 -251 44t-180 123.5t-107 187t-41 239.5h350q4 -174 58.5 -244.5t170.5 -70.5q115 0 172 71.5t57 243.5z" />
    <glyph glyph-name="K" unicode="K" horiz-adv-x="1460" 
d="M485 1485v-588l539 588h428l-549 -592l578 -893h-422l-402 627l-172 -189v-438h-350v1485h350z" />
    <glyph glyph-name="L" unicode="L" horiz-adv-x="1196" 
d="M485 1485v-1176h713v-309h-1063v1485h350z" />
    <glyph glyph-name="M" unicode="M" horiz-adv-x="1943" 
d="M1139 0h-330l-334 1188v-1188h-340v1485h553l285 -1065l291 1065h546v-1485h-340v1190z" />
    <glyph glyph-name="N" unicode="N" horiz-adv-x="1628" 
d="M1495 0h-426l-596 1024v-1024h-338v1485h426l596 -1024v1024h338v-1485z" />
    <glyph glyph-name="O" unicode="O" horiz-adv-x="1630" 
d="M416 741q0 -227 113.5 -353t285.5 -126t285.5 126t113.5 353t-113.5 353.5t-285.5 126.5t-285.5 -126.5t-113.5 -353.5zM1585 741q0 -228 -97.5 -403t-272 -270t-400.5 -95q-227 0 -401.5 95t-271.5 269.5t-97 403.5t97 403.5t271.5 269.5t401.5 95q226 0 400.5 -95
t272 -270t97.5 -403z" />
    <glyph glyph-name="P" unicode="P" horiz-adv-x="1386" 
d="M135 1485h572q122 0 218.5 -12.5t184 -46t145 -87t91.5 -139t34 -199.5q0 -115 -34 -201t-91.5 -140t-145 -87t-184 -46t-218.5 -13h-222v-514h-350v1485zM717 1190h-232v-381h232q66 0 115.5 8.5t91.5 29t64 59t22 95.5t-22 95t-64 58t-91 28t-116 8z" />
    <glyph glyph-name="Q" unicode="Q" horiz-adv-x="1630" 
d="M1585 741q0 -190 -66.5 -342t-191.5 -256l170 -225l-203 -149l-190 251q-136 -47 -289 -47q-227 0 -401.5 95t-271.5 269.5t-97 403.5t97 403.5t271.5 269.5t401.5 95q226 0 400.5 -95t272 -270t97.5 -403zM766 473l203 148l153 -205q92 129 92 325q0 227 -113.5 353.5
t-285.5 126.5t-285.5 -126.5t-113.5 -353.5t113.5 -353t285.5 -126q51 0 98 12z" />
    <glyph glyph-name="R" unicode="R" horiz-adv-x="1476" 
d="M1044 0l-321 559h-238v-559h-350v1485h572q122 0 218.5 -12t184 -43.5t145 -82.5t91.5 -132t34 -189q0 -297 -290 -410l366 -616h-412zM717 1190h-232v-336h232q68 0 117 6.5t91 24t63.5 52t21.5 85.5q0 50 -21.5 84t-63.5 51.5t-91.5 25t-116.5 7.5z" />
    <glyph glyph-name="S" unicode="S" horiz-adv-x="1378" 
d="M1294 1055h-346q-26 84 -103 129t-190 45q-105 0 -170 -38t-65 -106q0 -54 46 -92.5t126 -56.5l203 -41q48 -10 82.5 -17.5t82.5 -21t82.5 -26.5t76.5 -33.5t71.5 -42.5t59 -53t47.5 -65.5t29 -79t11 -95.5q0 -113 -53.5 -207t-142 -154.5t-199 -93.5t-227.5 -33
q-286 0 -464.5 134t-219.5 376h348q57 -227 344 -227q66 0 120.5 14t94 52t39.5 96q0 67 -70.5 108t-206.5 70l-180 37q-77 16 -141.5 38.5t-125 58.5t-102.5 82t-67 111t-25 142q0 88 36.5 162t97 125.5t140.5 87.5t167 52.5t176 16.5q112 0 212 -25.5t186 -78t144 -142
t76 -208.5z" />
    <glyph glyph-name="T" unicode="T" horiz-adv-x="1325" 
d="M485 0v1178h-475v307h1305v-307h-477v-1178h-353z" />
    <glyph glyph-name="U" unicode="U" horiz-adv-x="1505" 
d="M111 1485h350v-887q0 -87 12 -145.5t43.5 -104t90.5 -67t149 -21.5q72 0 124 17t83.5 45.5t50 75.5t24.5 98t6 122v867h351v-838q0 -349 -148.5 -511.5t-490.5 -162.5q-170 0 -288.5 34.5t-199.5 113t-119 205t-38 309.5v850z" />
    <glyph glyph-name="V" unicode="V" horiz-adv-x="1390" 
d="M-10 1485h372l343 -1092l342 1092h356l-504 -1485h-410z" />
    <glyph glyph-name="W" unicode="W" horiz-adv-x="1875" 
d="M1120 1485l219 -1030l187 1030h350l-336 -1485h-377l-225 1047l-223 -1047h-375l-340 1485h354l203 -1026l201 1026h362z" />
    <glyph glyph-name="X" unicode="X" horiz-adv-x="1478" 
d="M-23 0l558 756l-533 729h412l327 -449l330 449h406l-535 -723l559 -762h-411l-355 481l-354 -481h-404z" />
    <glyph glyph-name="Y" unicode="Y" horiz-adv-x="1417" 
d="M-33 1485h410l332 -570l335 570h406l-573 -912v-573h-351v578z" />
    <glyph glyph-name="Z" unicode="Z" horiz-adv-x="1343" 
d="M1268 1485v-268l-768 -908h778v-309h-1239v268l772 910h-713v307h1170z" />
    <glyph glyph-name="bracketleft" unicode="[" horiz-adv-x="663" 
d="M117 1485h569v-277h-237v-1290h237v-276h-569v1843z" />
    <glyph glyph-name="backslash" unicode="\" horiz-adv-x="937" 
d="M340 1485l598 -1485h-336l-602 1485h340z" />
    <glyph glyph-name="bracketright" unicode="]" horiz-adv-x="663" 
d="M-23 1485h570v-1843h-570v276h236v1290h-236v277z" />
    <glyph glyph-name="asciicircum" unicode="^" horiz-adv-x="1136" 
d="M709 1485l385 -793h-320l-205 467l-204 -467h-320l385 793h279z" />
    <glyph glyph-name="underscore" unicode="_" horiz-adv-x="1001" 
d="M956 -285h-911v285h911v-285z" />
    <glyph glyph-name="grave" unicode="`" horiz-adv-x="667" 
d="M369 1247l-324 238h383l195 -238h-254z" />
    <glyph glyph-name="a" unicode="a" horiz-adv-x="1222" 
d="M795 688v43q0 95 -46 135.5t-141 40.5q-83 0 -134.5 -41.5t-61.5 -120.5h-316q13 163 159 277.5t382 114.5q246 0 370.5 -110t120.5 -353l-4 -240v-115q0 -210 25 -319h-332l-4 133q-112 -160 -371 -160q-162 0 -271.5 88.5t-109.5 235.5q0 79 36 141t98 104t157.5 72
t201 47t241.5 27zM803 463v26q-67 -7 -112 -12.5t-94 -14.5t-79.5 -20.5t-57 -28t-38.5 -39.5t-12 -52q0 -53 44 -86t111 -33q54 0 95 12.5t74.5 41t51 80.5t17.5 126z" />
    <glyph glyph-name="b" unicode="b" horiz-adv-x="1331" 
d="M686 864q-108 0 -176 -76t-68 -237t68 -238t176 -77q106 0 176 83.5t70 231.5t-70 230.5t-176 82.5zM459 1485v-533q51 85 145.5 129.5t192.5 44.5q217 0 351 -154.5t134 -420.5t-134 -422t-351 -156q-98 0 -192.5 44.5t-145.5 129.5v-147h-338v1485h338z" />
    <glyph glyph-name="c" unicode="c" horiz-adv-x="1220" 
d="M618 1135q72 0 138.5 -13t133.5 -45.5t120 -81t94.5 -125t60.5 -172.5h-315q-42 174 -211 174q-102 0 -171 -76.5t-69 -240.5q0 -86 20 -150.5t55 -100t76 -52t89 -16.5q92 0 149 45t76 125h316q-22 -95 -66.5 -170.5t-100 -124t-124 -80.5t-135 -45t-136.5 -13
q-267 0 -415 158.5t-148 425.5q0 261 155.5 419.5t407.5 158.5z" />
    <glyph glyph-name="d" unicode="d" horiz-adv-x="1331" 
d="M872 1485h338v-1485h-338v147q-51 -85 -145 -129.5t-192 -44.5q-217 0 -351.5 156t-134.5 422t134.5 420.5t351.5 154.5q98 0 192 -44.5t145 -129.5v533zM645 864q-106 0 -176 -82.5t-70 -230.5t70 -231.5t176 -83.5q108 0 176 77t68 238t-68 237t-176 76z" />
    <glyph glyph-name="e" unicode="e" horiz-adv-x="1269" 
d="M897 346h311q-47 -125 -137 -211t-194 -124t-218 -38q-272 0 -438 156t-166 428q0 171 80.5 304.5t214.5 203.5t295 70q273 0 428.5 -186.5t138.5 -483.5h-817q7 -111 80.5 -170t173.5 -59q183 0 248 110zM645 877q-97 0 -165 -52t-81 -155h478q-4 101 -67.5 154
t-164.5 53z" />
    <glyph glyph-name="f" unicode="f" horiz-adv-x="757" 
d="M154 1102v69q0 98 21.5 159t73.5 95.5t124.5 47t189.5 12.5h172v-238h-96q-95 0 -121 -14.5t-26 -75.5v-55h243v-240h-243v-862h-338v862h-150v240h150z" />
    <glyph glyph-name="g" unicode="g" horiz-adv-x="1331" 
d="M874 952v150h336v-955q0 -120 -30 -212.5t-80.5 -152t-124 -98t-154 -54t-176.5 -15.5q-119 0 -218.5 30.5t-167.5 83t-110 120.5t-55 145h318q40 -141 229 -141q125 0 179 57.5t54 171.5v131q-51 -85 -145.5 -129.5t-193.5 -44.5q-219 0 -352.5 144t-133.5 401
t133.5 399.5t352.5 142.5q99 0 193.5 -44.5t145.5 -129.5zM645 864q-108 0 -177 -70.5t-69 -209.5q0 -141 69 -212t177 -71q110 0 177 66.5t67 216.5q0 280 -244 280z" />
    <glyph glyph-name="h" unicode="h" horiz-adv-x="1271" 
d="M459 1485v-529q42 70 131.5 120t210.5 50q204 0 287 -114t83 -350v-662h-337v578q0 49 -1 77t-6 66.5t-15.5 60t-28.5 42.5t-47.5 30.5t-69.5 9.5q-108 0 -157.5 -72t-49.5 -227v-565h-338v1485h338z" />
    <glyph glyph-name="i" unicode="i" horiz-adv-x="581" 
d="M121 1102h340v-1102h-340v1102zM121 1485h338v-271h-338v271z" />
    <glyph glyph-name="j" unicode="j" horiz-adv-x="579" 
d="M121 4v1098h338v-1110q0 -105 -20.5 -173t-67.5 -107.5t-112 -54.5t-165 -15h-125v243h39q70 0 91.5 24t21.5 95zM121 1485h338v-271h-338v271z" />
    <glyph glyph-name="k" unicode="k" horiz-adv-x="1253" 
d="M121 1485h338v-803l370 420h400l-393 -422l426 -680h-396l-260 434l-147 -158v-276h-338v1485z" />
    <glyph glyph-name="l" unicode="l" horiz-adv-x="579" 
d="M459 1485v-1485h-338v1485h338z" />
    <glyph glyph-name="m" unicode="m" horiz-adv-x="1968" 
d="M459 573v-573h-338v1102h338v-146q41 69 129.5 119.5t204.5 50.5q131 0 209.5 -46t117.5 -140q62 91 160 138.5t217 47.5q105 0 177.5 -30t114.5 -91t60.5 -144t18.5 -199v-662h-338v578q0 57 -2 91.5t-11.5 76t-27 64.5t-50 38.5t-79.5 15.5q-103 0 -150 -71t-47 -220
v-573h-338v578q0 57 -2 91.5t-11.5 76t-27 64.5t-50 38.5t-79.5 15.5q-103 0 -149.5 -70.5t-46.5 -220.5z" />
    <glyph glyph-name="n" unicode="n" horiz-adv-x="1271" 
d="M459 1102v-146q42 70 131.5 120t210.5 50q204 0 287 -114t83 -350v-662h-337v578q0 41 -1 66.5t-4.5 59t-10 54t-19 43t-30 35t-44.5 20.5t-61 8q-108 0 -156.5 -72t-48.5 -227v-565h-338v1102h338z" />
    <glyph glyph-name="o" unicode="o" horiz-adv-x="1277" 
d="M639 872q-109 0 -174.5 -75t-65.5 -242q0 -165 65 -242t175 -77t175 77t65 242q0 167 -65.5 242t-174.5 75zM639 1135q93 0 178 -21.5t159.5 -68t129 -113.5t86 -164t31.5 -213q0 -145 -48 -258.5t-130 -183t-185.5 -105t-220.5 -35.5t-220.5 35.5t-185.5 105t-130 183
t-48 258.5q0 116 31.5 213t86 164t129 113.5t159.5 68t178 21.5z" />
    <glyph glyph-name="p" unicode="p" horiz-adv-x="1331" 
d="M459 1102v-150q51 85 145.5 129.5t192.5 44.5q217 0 351 -154.5t134 -420.5t-134 -422t-351 -156q-98 0 -192.5 44.5t-145.5 129.5v-505h-338v1460h338zM686 864q-108 0 -176 -76t-68 -237t68 -238t176 -77q106 0 176 83.5t70 231.5t-70 230.5t-176 82.5z" />
    <glyph glyph-name="q" unicode="q" horiz-adv-x="1331" 
d="M645 864q-106 0 -176 -82.5t-70 -230.5t70 -231.5t176 -83.5q108 0 176 77t68 238t-68 237t-176 76zM872 1102h338v-1460h-338v505q-51 -85 -145 -129.5t-192 -44.5q-217 0 -351.5 156t-134.5 422t134.5 420.5t351.5 154.5q98 0 192 -44.5t145 -129.5v150z" />
    <glyph glyph-name="r" unicode="r" horiz-adv-x="821" 
d="M799 1108v-330q-39 6 -92 6q-127 0 -187.5 -53t-60.5 -178v-553h-338v1102h325v-209q81 209 302 217h24q19 0 27 -2z" />
    <glyph glyph-name="s" unicode="s" horiz-adv-x="1191" 
d="M1114 778h-315q-30 107 -215 107q-176 0 -176 -82q0 -38 31.5 -61.5t103.5 -36.5l205 -37q207 -38 299 -109.5t92 -212.5q0 -121 -70.5 -206.5t-189 -126t-273.5 -40.5q-224 0 -367.5 98t-172.5 287h313q22 -76 80 -107.5t151 -31.5q94 0 149.5 25t55.5 73q0 38 -39 62
t-133 41l-197 33q-167 28 -262.5 112t-95.5 226q0 106 70 184.5t183 116.5t251 38q97 0 182 -20t156.5 -61t119.5 -110t64 -161z" />
    <glyph glyph-name="t" unicode="t" horiz-adv-x="811" 
d="M174 1102v301h338v-301h242v-240h-242v-493q0 -77 29.5 -101t115.5 -24h97v-244h-215q-107 0 -172.5 12t-111 46.5t-63.5 94t-18 156.5v553h-174v240h174z" />
    <glyph glyph-name="u" unicode="u" horiz-adv-x="1263" 
d="M803 0v154q-37 -59 -77 -96.5t-102.5 -61t-144.5 -23.5q-108 0 -182.5 30t-118 91t-62 144.5t-18.5 199.5v664h338v-580q0 -49 1 -77t6 -66.5t15.5 -60t28.5 -42.5t47.5 -30.5t69.5 -9.5q108 0 153.5 65t45.5 219v582h338v-1102h-338z" />
    <glyph glyph-name="v" unicode="v" horiz-adv-x="1169" 
d="M365 1102l233 -776l223 776h348l-393 -1102h-375l-401 1102h365z" />
    <glyph glyph-name="w" unicode="w" horiz-adv-x="1607" 
d="M629 1102h348l129 -748l145 748h346l-254 -1102h-393l-147 813l-148 -813h-391l-254 1102h346l146 -748z" />
    <glyph glyph-name="x" unicode="x" horiz-adv-x="1214" 
d="M1198 1102l-405 -533l421 -569h-380l-236 315l-240 -315h-358l424 551l-408 551h383l219 -297l228 297h352z" />
    <glyph glyph-name="y" unicode="y" horiz-adv-x="1153" 
d="M242 -358h-109v243h68q106 0 141 15.5t59 76.5l11 29l-412 1096h371l202 -690l218 690h362l-432 -1102q-35 -89 -65.5 -145.5t-68 -101t-85.5 -67t-110 -33.5t-150 -11z" />
    <glyph glyph-name="z" unicode="z" horiz-adv-x="1122" 
d="M45 0v268l578 566h-539v268h973v-268l-578 -566h602v-268h-1036z" />
    <glyph glyph-name="braceleft" unicode="{" horiz-adv-x="737" 
d="M739 -358h-114q-105 0 -179 16.5t-131.5 56t-85.5 111t-28 176.5v213q0 54 -5.5 88.5t-21 65.5t-47.5 45t-82 14v272q50 0 82 14.5t47.5 45t21 65t5.5 86.5v213q0 85 19 148t53.5 103.5t88.5 65t117 34.5t146 10h114v-266h-53q-77 0 -111 -20.5t-34 -78.5v-274
q0 -68 -17 -118.5t-47.5 -82t-64.5 -49.5t-78 -29v-6q44 -11 78 -29t64.5 -49t47.5 -81.5t17 -118.5v-277q0 -59 33.5 -78.5t111.5 -19.5h53v-266z" />
    <glyph glyph-name="bar" unicode="|" horiz-adv-x="593" 
d="M135 1485h324v-1669h-324v1669z" />
    <glyph glyph-name="braceright" unicode="}" horiz-adv-x="737" 
d="M0 -358v266h53q78 0 112 19.5t34 78.5v277q0 68 17 118.5t47.5 81.5t64.5 49t78 29v6q-44 11 -78 29t-64.5 49.5t-47.5 82t-17 118.5v274q0 58 -34.5 78.5t-111.5 20.5h-53v266h115q83 0 146 -10t117 -34.5t88.5 -65t53.5 -103.5t19 -148v-213q0 -53 5 -87t20.5 -64.5
t47.5 -45t82 -14.5v-272q-40 0 -68.5 -10.5t-45.5 -27t-26 -45t-12 -58t-3 -72.5v-213q0 -105 -28 -176.5t-85.5 -111t-131.5 -56t-179 -16.5h-115z" />
    <glyph glyph-name="asciitilde" unicode="~" horiz-adv-x="1388" 
d="M874 616q88 0 91 136h235q-8 -204 -74.5 -307t-224.5 -103q-53 0 -109.5 21t-96.5 45.5t-90 45.5t-91 21q-44 0 -66.5 -29.5t-23.5 -103.5h-236q5 200 75 305t229 105q57 0 115 -21t98 -47t86.5 -47t82.5 -21z" />
    <glyph glyph-name="uni00A0" unicode="&#xa0;" horiz-adv-x="440" 
 />
    <glyph glyph-name="exclamdown" unicode="&#xa1;" horiz-adv-x="626" 
d="M201 653h225l102 -606v-405h-430v405zM504 737h-381v365h381v-365z" />
    <glyph glyph-name="cent" unicode="&#xa2;" horiz-adv-x="1193" 
d="M582 1278h104v-148q82 -6 155.5 -33t139.5 -76.5t114.5 -132t69.5 -190.5h-315q-35 147 -164 170v-630q141 21 178 168h316q-26 -107 -77.5 -188.5t-119.5 -131t-142 -76.5t-155 -33v-190h-104v188q-250 12 -388.5 168.5t-138.5 413.5q0 249 145.5 406.5t381.5 169.5v145
zM399 555q0 -140 51 -217t132 -96v622q-81 -19 -132 -95t-51 -214z" />
    <glyph glyph-name="sterling" unicode="&#xa3;" horiz-adv-x="1343" 
d="M686 1239q-93 0 -151 -40.5t-58 -108.5q0 -46 19 -99t36.5 -84t55.5 -94h350v-154h-279q17 -56 17 -92q0 -88 -62.5 -163.5t-171.5 -147.5l2 -2q81 45 185 45q60 0 167.5 -23.5t151.5 -23.5q112 0 230 67l110 -262q-162 -84 -368 -84q-80 0 -227.5 40t-219.5 40
q-153 0 -299 -80l-123 258q142 66 207.5 138.5t65.5 189.5q0 39 -23 100h-256v154h176q-31 58 -48.5 96.5t-33.5 96.5t-16 112q0 100 47.5 177t128 122.5t178 68.5t205.5 23q264 0 434 -146.5t166 -387.5h-330q4 137 -72.5 200.5t-193.5 63.5z" />
    <glyph glyph-name="currency" unicode="&#xa4;" horiz-adv-x="1302" 
d="M162 709q0 158 90 284l-141 144l100 100l139 -139q130 100 295 100q172 0 301 -104l146 143l100 -100l-148 -148q91 -132 91 -280q0 -153 -91 -281l148 -145l-100 -101l-146 144q-135 -101 -301 -101q-164 0 -293 99l-141 -142l-100 101l141 143q-90 126 -90 283z
M440 709q0 -97 56.5 -157t148.5 -60q98 0 156.5 60t58.5 157q0 100 -58.5 162.5t-156.5 62.5q-92 0 -148.5 -62.5t-56.5 -162.5z" />
    <glyph glyph-name="yen" unicode="&#xa5;" horiz-adv-x="1460" 
d="M1227 182h-332v-182h-338v182h-319v162h319v131h-319v164h268l-516 846h409l332 -592l336 592h406l-525 -846h279v-164h-332v-131h332v-162z" />
    <glyph glyph-name="brokenbar" unicode="&#xa6;" horiz-adv-x="499" 
d="M121 1485h258v-625h-258v625zM121 440h258v-624h-258v624z" />
    <glyph glyph-name="section" unicode="&#xa7;" horiz-adv-x="1271" 
d="M625 -135q74 0 115.5 30t41.5 80q0 48 -40 86.5t-126 81.5l-258 125q-154 75 -233.5 167t-79.5 212q0 164 193 285q-88 106 -88 235q0 107 67 186t173.5 117.5t236.5 38.5q215 0 349 -104.5t154 -306.5h-311q-17 80 -65 116.5t-129 36.5q-66 0 -105 -20t-39 -55t33 -63.5
t104 -63.5l275 -134q173 -84 254.5 -167.5t81.5 -204.5q0 -91 -54 -167.5t-153 -131.5q98 -103 98 -242q0 -181 -140.5 -289t-363.5 -108q-225 0 -359.5 128t-152.5 345h314q24 -213 207 -213zM717 655l-248 121q-92 -50 -92 -102q0 -41 34 -71.5t103 -63.5l272 -133l9 -7
q49 26 71.5 49t22.5 56q0 45 -40 75.5t-132 75.5z" />
    <glyph glyph-name="dieresis" unicode="&#xa8;" horiz-adv-x="849" 
d="M45 1225v260h303v-260h-303zM504 1485h301v-260h-301v260z" />
    <glyph glyph-name="copyright" unicode="&#xa9;" horiz-adv-x="1689" 
d="M78 739q0 168 60.5 313t163.5 245t244.5 157t299.5 57t298.5 -57t243.5 -157t163.5 -245t60.5 -313q0 -222 -103 -398.5t-277.5 -272t-385.5 -95.5q-158 0 -299.5 56.5t-244.5 155.5t-163.5 243t-60.5 311zM248 739q0 -132 46.5 -247t126.5 -194.5t190 -125t235 -45.5
q258 0 427 172t169 440q0 136 -45 251.5t-124.5 195.5t-189.5 125t-237 45q-167 0 -303 -76.5t-215.5 -218t-79.5 -322.5zM848 500q163 0 194 155l213 -47q-36 -130 -146 -209.5t-267 -79.5q-190 0 -301 117.5t-111 304.5q0 189 114.5 303.5t303.5 114.5q152 0 263 -83
t136 -214l-211 -51q-11 75 -61.5 123.5t-126.5 48.5q-84 0 -137.5 -62.5t-53.5 -179.5q0 -115 51.5 -178t139.5 -63z" />
    <glyph glyph-name="ordfeminine" unicode="&#xaa;" horiz-adv-x="716" 
d="M266 1315h-209q21 213 322 213q143 0 210.5 -58t67.5 -190l-2 -131q-3 -110 13 -252h-201l-2 70q-54 -86 -195 -86q-108 0 -170.5 61.5t-62.5 147.5q0 85 57 129q11 9 25.5 17t27.5 13.5t34 11t33.5 9t38.5 8t36.5 6t39.5 5.5t36 5l75 9v12q0 63 -86 63q-80 0 -88 -63z
M446 1130v37l-81 -8q-57 -4 -79 -19t-22 -42q0 -25 18.5 -42.5t53.5 -17.5q49 0 79.5 24.5t30.5 67.5z" />
    <glyph glyph-name="guillemotleft" unicode="&#xab;" horiz-adv-x="1259" 
d="M365 84l-345 477l345 473h317l-268 -475l266 -475h-315zM899 84l-344 477l344 473h318l-269 -475l266 -475h-315z" />
    <glyph glyph-name="logicalnot" unicode="&#xac;" horiz-adv-x="1388" 
d="M928 657h-867v283h1184v-815h-317v532z" />
    <glyph glyph-name="uni00AD" unicode="&#xad;" horiz-adv-x="899" 
d="M811 401h-723v285h723v-285z" />
    <glyph glyph-name="registered" unicode="&#xae;" horiz-adv-x="1689" 
d="M78 739q0 168 60.5 313t163.5 245t244.5 157t299.5 57t298.5 -57t243.5 -157t163.5 -245t60.5 -313q0 -222 -103 -398.5t-277.5 -272t-385.5 -95.5q-158 0 -299.5 56.5t-244.5 155.5t-163.5 243t-60.5 311zM248 739q0 -132 46.5 -247t126.5 -194.5t190 -125t235 -45.5
q258 0 427 172t169 440q0 136 -45 251.5t-124.5 195.5t-189.5 125t-237 45q-167 0 -303 -76.5t-215.5 -218t-79.5 -322.5zM715 651v-293h-221v820h327q87 0 152.5 -12.5t119 -42t81.5 -83t28 -131.5q0 -166 -149 -225l198 -326h-245l-172 293h-119zM981 909q0 40 -26 68.5
t-78 28.5h-162v-185h162q53 0 78.5 24.5t25.5 63.5z" />
    <glyph glyph-name="macron" unicode="&#xaf;" horiz-adv-x="731" 
d="M686 1268h-641v219h641v-219z" />
    <glyph glyph-name="degree" unicode="&#xb0;" horiz-adv-x="763" 
d="M23 1151q0 151 104.5 255.5t253.5 104.5q151 0 256.5 -104t105.5 -256q0 -148 -106 -254t-256 -106q-148 0 -253 106t-105 254zM231 1151q0 -67 42.5 -114.5t107.5 -47.5q68 0 112 47.5t44 114.5q0 68 -44 115t-112 47q-65 0 -107.5 -47t-42.5 -115z" />
    <glyph glyph-name="plusminus" unicode="&#xb1;" horiz-adv-x="1388" 
d="M541 860v242h309v-242h414v-282h-414v-242h-309v242h-416v282h416zM1264 0h-1139v285h1139v-285z" />
    <glyph glyph-name="twosuperior" unicode="&#xb2;" horiz-adv-x="747" 
d="M385 1747q141 0 228 -61t87 -179q0 -60 -23.5 -113t-76 -105.5t-107.5 -94t-147 -102.5h352v-195h-667v180q21 15 82 56.5t99 68t92.5 70t86.5 76.5t56 71.5t24 69.5q0 45 -26 66.5t-70 21.5q-56 0 -90.5 -38.5t-38.5 -115.5h-215q1 155 94.5 239.5t259.5 84.5z" />
    <glyph glyph-name="threesuperior" unicode="&#xb3;" horiz-adv-x="790" 
d="M395 1051q55 0 84 24.5t29 61.5q0 50 -40 71t-124 21h-41v186h41q145 0 145 88q0 36 -30 55t-72 19q-50 0 -85.5 -26t-39.5 -74h-221q17 132 111 201t251 69q139 0 227.5 -60.5t88.5 -166.5q0 -62 -31.5 -111t-79.5 -74q62 -24 98.5 -76t36.5 -122q0 -119 -102.5 -187.5
t-249.5 -68.5q-155 0 -251 77t-109 213h219q10 -59 48.5 -89.5t96.5 -30.5z" />
    <glyph glyph-name="acute" unicode="&#xb4;" horiz-adv-x="667" 
d="M623 1485l-324 -238h-254l195 238h383z" />
    <glyph glyph-name="mu" unicode="&#xb5;" horiz-adv-x="1288" 
d="M426 -358h-336q27 155 27 370v1090h338v-590q0 -145 47 -212t143 -67t144.5 67t48.5 212v590h333v-1102h-333v96q-63 -108 -193 -108q-134 0 -194 108v-96q0 -217 -25 -358z" />
    <glyph glyph-name="mu" unicode="&#x3bc;" horiz-adv-x="1288" 
d="M426 -358h-336q27 155 27 370v1090h338v-590q0 -145 47 -212t143 -67t144.5 67t48.5 212v590h333v-1102h-333v96q-63 -108 -193 -108q-134 0 -194 108v-96q0 -217 -25 -358z" />
    <glyph glyph-name="paragraph" unicode="&#xb6;" horiz-adv-x="1032" 
d="M0 1135q0 164 127.5 257t339.5 93h436v-1667h-168v1511h-229v-1511h-166v968q-48 5 -93 18.5t-91 40.5t-80 65t-55 96t-21 129z" />
    <glyph glyph-name="periodcentered" unicode="&#xb7;" horiz-adv-x="577" 
d="M479 369h-381v364h381v-364z" />
    <glyph glyph-name="cedilla" unicode="&#xb8;" horiz-adv-x="567" 
d="M45 -383l35 111q52 -29 135 -29q98 0 98 59q0 28 -22 43t-60 15q-46 0 -77 -19l-62 35l105 170h127l-68 -106q24 8 76 8q73 0 131.5 -34.5t58.5 -105.5q0 -47 -23.5 -82t-64 -55t-89.5 -29.5t-105 -9.5q-103 0 -195 29z" />
    <glyph glyph-name="onesuperior" unicode="&#xb9;" horiz-adv-x="509" 
d="M422 897h-225v543h-187v164q107 4 159 33t77 96h176v-836z" />
    <glyph glyph-name="ordmasculine" unicode="&#xba;" horiz-adv-x="745" 
d="M264 1204q0 -75 30 -114t79 -39t77.5 38.5t28.5 114.5t-28.5 115t-77.5 39t-79 -39.5t-30 -114.5zM35 1204q0 158 95 241t243 83q145 0 241.5 -83.5t96.5 -240.5t-96.5 -240t-241.5 -83q-148 0 -243 82.5t-95 240.5z" />
    <glyph glyph-name="guillemotright" unicode="&#xbb;" horiz-adv-x="1259" 
d="M705 561l-345 -477h-315l266 475l-268 475h317zM1239 561l-344 -477h-315l266 475l-268 475h317z" />
    <glyph glyph-name="onequarter" unicode="&#xbc;" horiz-adv-x="1869" 
d="M422 649h-225v543h-187v164q107 4 159 33t77 96h176v-836zM440 0h-340l1024 1485h340zM1489 561l-174 -203h174v203zM1841 358v-192h-127v-166h-225v166h-402v172l429 498h198v-478h127z" />
    <glyph glyph-name="onehalf" unicode="&#xbd;" horiz-adv-x="1802" 
d="M422 649h-225v543h-187v164q107 4 159 33t77 96h176v-836zM440 0h-340l1024 1485h340zM1440 850q141 0 228 -61t87 -179q0 -60 -23.5 -113t-76 -105.5t-107.5 -94t-147 -102.5h352v-195h-668v180q21 15 82 56.5t99 68.5t93 70t87 76t56 71.5t24 69.5q0 45 -26 66.5
t-70 21.5q-56 0 -91 -38.5t-39 -115.5h-215q1 155 95 239.5t260 84.5z" />
    <glyph glyph-name="threequarters" unicode="&#xbe;" horiz-adv-x="2150" 
d="M395 803q55 0 84 24.5t29 61.5q0 50 -40 71t-124 21h-41v186h41q145 0 145 88q0 36 -30 55t-72 19q-50 0 -85.5 -26t-39.5 -74h-221q17 132 111 201t251 69q139 0 227.5 -60.5t88.5 -166.5q0 -62 -31.5 -111t-79.5 -74q62 -24 98.5 -76t36.5 -122q0 -119 -102.5 -187.5
t-249.5 -68.5q-155 0 -251 77.5t-109 213.5h219q10 -59 48.5 -90t96.5 -31zM721 0h-340l1024 1485h340zM1769 561l-174 -203h174v203zM2122 358v-192h-127v-166h-226v166h-401v172l428 498h199v-478h127z" />
    <glyph glyph-name="questiondown" unicode="&#xbf;" horiz-adv-x="1277" 
d="M606 -383q-113 0 -213.5 23t-181 68t-127.5 119.5t-47 168.5q0 71 20.5 128t61.5 100t86.5 73.5t111.5 62.5q62 28 96.5 48t65.5 48t43.5 63t12.5 83v53h337q7 -36 7 -98q0 -60 -13 -110t-33.5 -84.5t-54.5 -66t-66 -52t-79 -45.5q-22 -11 -63 -29t-69 -31t-57.5 -31
t-45 -39.5t-15.5 -45.5q0 -62 61.5 -99t165.5 -37q136 0 217.5 59.5t81.5 178.5h328q0 -239 -173 -373.5t-458 -134.5zM897 737h-381v365h381v-365z" />
    <glyph glyph-name="Agrave" unicode="&#xc0;" horiz-adv-x="1484" 
d="M-10 0l559 1485h385l561 -1485h-381l-90 264h-573l-89 -264h-372zM739 1114l-192 -565h383zM592 1583l-326 232h412l213 -232h-299z" />
    <glyph glyph-name="Aacute" unicode="&#xc1;" horiz-adv-x="1484" 
d="M-10 0l559 1485h385l561 -1485h-381l-90 264h-573l-89 -264h-372zM739 1114l-192 -565h383zM1217 1815l-326 -232h-299l211 232h414z" />
    <glyph glyph-name="Acircumflex" unicode="&#xc2;" horiz-adv-x="1484" 
d="M-10 0l559 1485h385l561 -1485h-381l-90 264h-573l-89 -264h-372zM739 1114l-192 -565h383zM911 1815l281 -232h-336l-111 100l-120 -100h-332l287 232h331z" />
    <glyph glyph-name="Atilde" unicode="&#xc3;" horiz-adv-x="1484" 
d="M-10 0l559 1485h385l561 -1485h-381l-90 264h-573l-89 -264h-372zM739 1114l-192 -565h383zM866 1739q96 0 111 76h199q-11 -59 -37 -104t-56.5 -69.5t-69.5 -40t-69.5 -20t-62.5 -4.5q-57 0 -105.5 19t-87.5 38t-72 19q-93 0 -108 -76h-199q14 72 48.5 122.5t80.5 74
t85.5 32.5t80.5 9q57 0 103 -19t84 -38t75 -19z" />
    <glyph glyph-name="Adieresis" unicode="&#xc4;" horiz-adv-x="1484" 
d="M-10 0l559 1485h385l561 -1485h-381l-90 264h-573l-89 -264h-372zM739 1114l-192 -565h383zM356 1815h301v-232h-301v232zM825 1815h303v-232h-303v232z" />
    <glyph glyph-name="Aring" unicode="&#xc5;" horiz-adv-x="1484" 
d="M-10 0l559 1485h385l561 -1485h-381l-90 264h-573l-89 -264h-372zM739 1114l-192 -565h383zM741 1915q79 0 133 -50t54 -124q0 -77 -54 -125.5t-133 -48.5t-131.5 48.5t-52.5 125.5q0 74 54 124t130 50zM741 1829q-36 0 -62 -25t-26 -63q0 -37 26 -61.5t62 -24.5t62 24.5
t26 61.5q0 38 -26 63t-62 25z" />
    <glyph glyph-name="AE" unicode="&#xc6;" horiz-adv-x="2256" 
d="M1034 1485h1139v-307h-789v-260h744v-310h-744v-299h789v-309h-1139v264h-518l-186 -264h-418zM1034 993l-315 -444h315v444z" />
    <glyph glyph-name="Ccedilla" unicode="&#xc7;" horiz-adv-x="1536" 
d="M1151 553h344q-42 -260 -235 -420t-472 -160q-346 0 -544.5 206.5t-198.5 563.5q0 352 203 559t551 207q275 0 462 -161t224 -418h-344q-28 145 -125 218t-230 73q-160 0 -265 -128.5t-105 -349.5q0 -228 105 -354.5t270 -126.5q49 0 92.5 8.5t87.5 29.5t78.5 53
t61.5 83.5t40 116.5zM532 -383l35 111q52 -29 135 -29q99 0 99 59q0 28 -22 43t-60 15q-47 0 -78 -19l-61 35l104 170h127l-68 -106q24 8 76 8q73 0 132 -34.5t59 -105.5q0 -61 -42 -102t-103.5 -57.5t-137.5 -16.5q-103 0 -195 29z" />
    <glyph glyph-name="Egrave" unicode="&#xc8;" horiz-adv-x="1357" 
d="M135 0v1485h1139v-307h-789v-260h746v-310h-746v-299h789v-309h-1139zM596 1583l-326 232h412l213 -232h-299z" />
    <glyph glyph-name="Eacute" unicode="&#xc9;" horiz-adv-x="1357" 
d="M135 0v1485h1139v-307h-789v-260h746v-310h-746v-299h789v-309h-1139zM1159 1815l-325 -232h-299l210 232h414z" />
    <glyph glyph-name="Ecircumflex" unicode="&#xca;" horiz-adv-x="1357" 
d="M135 0v1485h1139v-307h-789v-260h746v-310h-746v-299h789v-309h-1139zM889 1815l280 -232h-335l-111 100l-121 -100h-332l287 232h332z" />
    <glyph glyph-name="Edieresis" unicode="&#xcb;" horiz-adv-x="1357" 
d="M135 0v1485h1139v-307h-789v-260h746v-310h-746v-299h789v-309h-1139zM336 1815h301v-232h-301v232zM805 1815h303v-232h-303v232z" />
    <glyph glyph-name="Igrave" unicode="&#xcc;" horiz-adv-x="618" 
d="M485 1485v-1485h-350v1485h350zM162 1583l-326 232h412l213 -232h-299z" />
    <glyph glyph-name="Iacute" unicode="&#xcd;" horiz-adv-x="618" 
d="M485 1485v-1485h-350v1485h350zM784 1815l-325 -232h-299l211 232h413z" />
    <glyph glyph-name="Icircumflex" unicode="&#xce;" horiz-adv-x="618" 
d="M485 1485v-1485h-350v1485h350zM481 1815l281 -232h-336l-111 100l-120 -100h-332l287 232h331z" />
    <glyph glyph-name="Idieresis" unicode="&#xcf;" horiz-adv-x="618" 
d="M485 1485v-1485h-350v1485h350zM-74 1815h301v-232h-301v232zM395 1815h303v-232h-303v232z" />
    <glyph glyph-name="Eth" unicode="&#xd0;" horiz-adv-x="1605" 
d="M205 1485h489q151 0 277 -22.5t237.5 -77t188.5 -138t121.5 -211.5t44.5 -293t-44.5 -293.5t-121.5 -212.5t-188.5 -138t-237.5 -76.5t-277 -22.5h-489v598h-182v307h182v580zM1192 743q0 114 -27.5 197t-71 130.5t-111 75t-132 36t-150.5 8.5h-145v-285h215v-307h-215
v-303h145q86 0 150.5 8.5t132 36.5t111 75.5t71 130.5t27.5 197z" />
    <glyph glyph-name="Ntilde" unicode="&#xd1;" horiz-adv-x="1628" 
d="M1495 0h-426l-596 1024v-1024h-338v1485h426l596 -1024v1024h338v-1485zM967 1739q95 0 110 76h199q-11 -59 -37 -104t-56.5 -69.5t-69.5 -40t-69.5 -20t-62.5 -4.5q-57 0 -105.5 19t-87 38t-71.5 19q-94 0 -109 -76h-198q14 72 48.5 122.5t80.5 74t85.5 32.5t80.5 9
q57 0 103 -19t84 -38t75 -19z" />
    <glyph glyph-name="Ograve" unicode="&#xd2;" horiz-adv-x="1630" 
d="M416 741q0 -227 113.5 -353t285.5 -126t285.5 126t113.5 353t-113.5 353.5t-285.5 126.5t-285.5 -126.5t-113.5 -353.5zM1585 741q0 -228 -97.5 -403t-272 -270t-400.5 -95q-227 0 -401.5 95t-271.5 269.5t-97 403.5t97 403.5t271.5 269.5t401.5 95q226 0 400.5 -95
t272 -270t97.5 -403zM666 1583l-326 232h412l213 -232h-299z" />
    <glyph glyph-name="Oacute" unicode="&#xd3;" horiz-adv-x="1630" 
d="M416 741q0 -227 113.5 -353t285.5 -126t285.5 126t113.5 353t-113.5 353.5t-285.5 126.5t-285.5 -126.5t-113.5 -353.5zM1585 741q0 -228 -97.5 -403t-272 -270t-400.5 -95q-227 0 -401.5 95t-271.5 269.5t-97 403.5t97 403.5t271.5 269.5t401.5 95q226 0 400.5 -95
t272 -270t97.5 -403zM1290 1815l-325 -232h-299l211 232h413z" />
    <glyph glyph-name="Ocircumflex" unicode="&#xd4;" horiz-adv-x="1630" 
d="M416 741q0 -227 113.5 -353t285.5 -126t285.5 126t113.5 353t-113.5 353.5t-285.5 126.5t-285.5 -126.5t-113.5 -353.5zM1585 741q0 -228 -97.5 -403t-272 -270t-400.5 -95q-227 0 -401.5 95t-271.5 269.5t-97 403.5t97 403.5t271.5 269.5t401.5 95q226 0 400.5 -95
t272 -270t97.5 -403zM985 1815l281 -232h-336l-111 100l-121 -100h-331l286 232h332z" />
    <glyph glyph-name="Otilde" unicode="&#xd5;" horiz-adv-x="1630" 
d="M416 741q0 -227 113.5 -353t285.5 -126t285.5 126t113.5 353t-113.5 353.5t-285.5 126.5t-285.5 -126.5t-113.5 -353.5zM1585 741q0 -228 -97.5 -403t-272 -270t-400.5 -95q-227 0 -401.5 95t-271.5 269.5t-97 403.5t97 403.5t271.5 269.5t401.5 95q226 0 400.5 -95
t272 -270t97.5 -403zM940 1739q96 0 111 76h198q-11 -59 -37 -104t-56.5 -69.5t-69.5 -40t-69.5 -20t-62.5 -4.5q-57 0 -105.5 19t-87 38t-71.5 19q-93 0 -108 -76h-199q14 72 48.5 122.5t80.5 74t85.5 32.5t80.5 9q57 0 103 -19t84 -38t75 -19z" />
    <glyph glyph-name="Odieresis" unicode="&#xd6;" horiz-adv-x="1630" 
d="M416 741q0 -227 113.5 -353t285.5 -126t285.5 126t113.5 353t-113.5 353.5t-285.5 126.5t-285.5 -126.5t-113.5 -353.5zM1585 741q0 -228 -97.5 -403t-272 -270t-400.5 -95q-227 0 -401.5 95t-271.5 269.5t-97 403.5t97 403.5t271.5 269.5t401.5 95q226 0 400.5 -95
t272 -270t97.5 -403zM430 1815h301v-232h-301v232zM899 1815h303v-232h-303v232z" />
    <glyph glyph-name="multiply" unicode="&#xd7;" horiz-adv-x="1388" 
d="M1233 266l-236 -225l-301 287l-319 -301l-234 221l318 305l-307 289l237 223l305 -291l316 303l235 -225l-317 -299z" />
    <glyph glyph-name="Oslash" unicode="&#xd8;" horiz-adv-x="1628" 
d="M1585 741q0 -228 -97.5 -403t-272 -270t-400.5 -95q-272 0 -461 131l-123 -145l-110 96l123 144q-199 205 -199 542q0 229 97 403.5t271.5 269.5t401.5 95q257 0 442 -120l99 116l114 -94l-98 -115q213 -207 213 -555zM1214 741q0 170 -69 289l-580 -678q110 -90 250 -90
q172 0 285.5 126t113.5 353zM416 741q0 -161 57 -272l574 674q-104 78 -232 78q-172 0 -285.5 -126.5t-113.5 -353.5z" />
    <glyph glyph-name="Ugrave" unicode="&#xd9;" horiz-adv-x="1505" 
d="M111 1485h350v-887q0 -87 12 -145.5t43.5 -104t90.5 -67t149 -21.5q72 0 124 17t83.5 45.5t50 75.5t24.5 98t6 122v867h351v-838q0 -349 -148.5 -511.5t-490.5 -162.5q-170 0 -288.5 34.5t-199.5 113t-119 205t-38 309.5v850zM602 1583l-326 232h412l213 -232h-299z" />
    <glyph glyph-name="Uacute" unicode="&#xda;" horiz-adv-x="1505" 
d="M111 1485h350v-887q0 -87 12 -145.5t43.5 -104t90.5 -67t149 -21.5q72 0 124 17t83.5 45.5t50 75.5t24.5 98t6 122v867h351v-838q0 -349 -148.5 -511.5t-490.5 -162.5q-170 0 -288.5 34.5t-199.5 113t-119 205t-38 309.5v850zM1227 1815l-326 -232h-299l211 232h414z" />
    <glyph glyph-name="Ucircumflex" unicode="&#xdb;" horiz-adv-x="1505" 
d="M111 1485h350v-887q0 -87 12 -145.5t43.5 -104t90.5 -67t149 -21.5q72 0 124 17t83.5 45.5t50 75.5t24.5 98t6 122v867h351v-838q0 -349 -148.5 -511.5t-490.5 -162.5q-170 0 -288.5 34.5t-199.5 113t-119 205t-38 309.5v850zM922 1815l280 -232h-336l-110 100l-121 -100
h-332l287 232h332z" />
    <glyph glyph-name="Udieresis" unicode="&#xdc;" horiz-adv-x="1505" 
d="M111 1485h350v-887q0 -87 12 -145.5t43.5 -104t90.5 -67t149 -21.5q72 0 124 17t83.5 45.5t50 75.5t24.5 98t6 122v867h351v-838q0 -349 -148.5 -511.5t-490.5 -162.5q-170 0 -288.5 34.5t-199.5 113t-119 205t-38 309.5v850zM367 1815h301v-232h-301v232zM836 1815h303
v-232h-303v232z" />
    <glyph glyph-name="Yacute" unicode="&#xdd;" horiz-adv-x="1417" 
d="M-33 1485h410l332 -570l335 570h406l-573 -912v-573h-351v578zM1184 1815l-326 -232h-299l211 232h414z" />
    <glyph glyph-name="Thorn" unicode="&#xde;" horiz-adv-x="1304" 
d="M467 1247h197q123 0 219 -12.5t183.5 -45.5t145 -86.5t91.5 -139.5t34 -201q0 -114 -34 -199t-91.5 -138.5t-145 -86t-184 -45t-218.5 -12.5h-197v-281h-352v1485h352v-238zM674 938h-207v-350h207q55 0 94 3t79.5 13.5t64.5 29t39.5 51t15.5 77.5q0 57 -21.5 93.5
t-65 54t-90 23t-116.5 5.5z" />
    <glyph glyph-name="germandbls" unicode="&#xdf;" horiz-adv-x="1390" 
d="M457 0h-340v969q0 158 39 253.5t116 159.5q159 127 455 127q153 0 271 -45t188.5 -139.5t70.5 -226.5q0 -88 -33.5 -160.5t-82.5 -114.5q95 -51 153 -144t58 -226q0 -234 -147 -357t-392 -123q-171 0 -297 39l72 277q100 -35 198 -35q91 0 155.5 49.5t64.5 136.5
q0 222 -301 222h-68v262h57q238 0 238 157q0 70 -53.5 113t-159.5 43q-149 0 -209 -70q-28 -31 -40.5 -80t-12.5 -143v-944z" />
    <glyph glyph-name="agrave" unicode="&#xe0;" horiz-adv-x="1222" 
d="M795 688v43q0 95 -46 135.5t-141 40.5q-83 0 -134.5 -41.5t-61.5 -120.5h-316q13 163 159 277.5t382 114.5q246 0 370.5 -110t120.5 -353l-4 -240v-115q0 -210 25 -319h-332l-4 133q-112 -160 -371 -160q-162 0 -271.5 88.5t-109.5 235.5q0 79 36 141t98 104t157.5 72
t201 47t241.5 27zM803 463v26q-67 -7 -112 -12.5t-94 -14.5t-79.5 -20.5t-57 -28t-38.5 -39.5t-12 -52q0 -53 44 -86t111 -33q54 0 95 12.5t74.5 41t51 80.5t17.5 126zM520 1247l-323 238h383l194 -238h-254z" />
    <glyph glyph-name="aacute" unicode="&#xe1;" horiz-adv-x="1222" 
d="M795 688v43q0 95 -46 135.5t-141 40.5q-83 0 -134.5 -41.5t-61.5 -120.5h-316q13 163 159 277.5t382 114.5q246 0 370.5 -110t120.5 -353l-4 -240v-115q0 -210 25 -319h-332l-4 133q-112 -160 -371 -160q-162 0 -271.5 88.5t-109.5 235.5q0 79 36 141t98 104t157.5 72
t201 47t241.5 27zM803 463v26q-67 -7 -112 -12.5t-94 -14.5t-79.5 -20.5t-57 -28t-38.5 -39.5t-12 -52q0 -53 44 -86t111 -33q54 0 95 12.5t74.5 41t51 80.5t17.5 126zM1055 1485l-324 -238h-254l195 238h383z" />
    <glyph glyph-name="acircumflex" unicode="&#xe2;" horiz-adv-x="1222" 
d="M795 688v43q0 95 -46 135.5t-141 40.5q-83 0 -134.5 -41.5t-61.5 -120.5h-316q13 163 159 277.5t382 114.5q246 0 370.5 -110t120.5 -353l-4 -240v-115q0 -210 25 -319h-332l-4 133q-112 -160 -371 -160q-162 0 -271.5 88.5t-109.5 235.5q0 79 36 141t98 104t157.5 72
t201 47t241.5 27zM803 463v26q-67 -7 -112 -12.5t-94 -14.5t-79.5 -20.5t-57 -28t-38.5 -39.5t-12 -52q0 -53 44 -86t111 -33q54 0 95 12.5t74.5 41t51 80.5t17.5 126zM786 1485l279 -238h-307l-127 94l-129 -94h-312l289 238h307z" />
    <glyph glyph-name="atilde" unicode="&#xe3;" horiz-adv-x="1222" 
d="M795 688v43q0 95 -46 135.5t-141 40.5q-83 0 -134.5 -41.5t-61.5 -120.5h-316q13 163 159 277.5t382 114.5q246 0 370.5 -110t120.5 -353l-4 -240v-115q0 -210 25 -319h-332l-4 133q-112 -160 -371 -160q-162 0 -271.5 88.5t-109.5 235.5q0 79 36 141t98 104t157.5 72
t201 47t241.5 27zM803 463v26q-67 -7 -112 -12.5t-94 -14.5t-79.5 -20.5t-57 -28t-38.5 -39.5t-12 -52q0 -53 44 -86t111 -33q54 0 95 12.5t74.5 41t51 80.5t17.5 126zM748 1417q90 0 108 90h199q-23 -128 -94.5 -194t-182.5 -66q-60 0 -112.5 22.5t-93.5 45t-74 22.5
q-90 0 -105 -90h-198q21 125 91 192.5t187 67.5q46 0 87.5 -14t67 -31t58 -31t62.5 -14z" />
    <glyph glyph-name="adieresis" unicode="&#xe4;" horiz-adv-x="1222" 
d="M795 688v43q0 95 -46 135.5t-141 40.5q-83 0 -134.5 -41.5t-61.5 -120.5h-316q13 163 159 277.5t382 114.5q246 0 370.5 -110t120.5 -353l-4 -240v-115q0 -210 25 -319h-332l-4 133q-112 -160 -371 -160q-162 0 -271.5 88.5t-109.5 235.5q0 79 36 141t98 104t157.5 72
t201 47t241.5 27zM803 463v26q-67 -7 -112 -12.5t-94 -14.5t-79.5 -20.5t-57 -28t-38.5 -39.5t-12 -52q0 -53 44 -86t111 -33q54 0 95 12.5t74.5 41t51 80.5t17.5 126zM225 1225v260h303v-260h-303zM684 1485h301v-260h-301v260z" />
    <glyph glyph-name="aring" unicode="&#xe5;" horiz-adv-x="1222" 
d="M795 688v43q0 95 -46 135.5t-141 40.5q-83 0 -134.5 -41.5t-61.5 -120.5h-316q13 163 159 277.5t382 114.5q246 0 370.5 -110t120.5 -353l-4 -240v-115q0 -210 25 -319h-332l-4 133q-112 -160 -371 -160q-162 0 -271.5 88.5t-109.5 235.5q0 79 36 141t98 104t157.5 72
t201 47t241.5 27zM803 463v26q-67 -7 -112 -12.5t-94 -14.5t-79.5 -20.5t-57 -28t-38.5 -39.5t-12 -52q0 -53 44 -86t111 -33q54 0 95 12.5t74.5 41t51 80.5t17.5 126zM623 1608q79 0 135.5 -52.5t56.5 -130.5q0 -77 -56 -129.5t-136 -52.5q-83 0 -139 51.5t-56 130.5
q0 78 57 130.5t138 52.5zM623 1509q-36 0 -60 -24t-24 -60q0 -35 24.5 -58.5t59.5 -23.5t59.5 23.5t24.5 58.5q0 36 -24 60t-60 24z" />
    <glyph glyph-name="ae" unicode="&#xe6;" horiz-adv-x="1978" 
d="M1606 346h311q-70 -185 -219.5 -279t-325.5 -94q-297 0 -446 203q-56 -97 -169 -150t-280 -53q-182 0 -299 84.5t-117 231.5q0 57 21 105t55.5 84t91 67t113.5 52t138 40.5t151 32t164 26.5v35q0 95 -46 135.5t-141 40.5q-83 0 -134.5 -41.5t-61.5 -120.5h-316
q13 162 159 275t382 113q246 0 356 -134q71 61 164 96t195 35q183 0 316.5 -84.5t198.5 -235t54 -345.5h-809q7 -111 79 -170t171 -59q179 0 244 110zM803 504l-135 -29q-134 -26 -196 -59.5t-62 -98.5q0 -53 43.5 -83.5t111.5 -30.5q54 0 95 12.5t74.5 41t51 80.5t17.5 126
v41zM1352 874q-96 0 -159.5 -50t-76.5 -154h469q-4 97 -68.5 150.5t-164.5 53.5z" />
    <glyph glyph-name="ccedilla" unicode="&#xe7;" horiz-adv-x="1220" 
d="M618 1135q72 0 138.5 -13t133.5 -45.5t120 -81t94.5 -125t60.5 -172.5h-315q-42 174 -211 174q-102 0 -171 -76.5t-69 -240.5q0 -86 20 -150.5t55 -100t76 -52t89 -16.5q92 0 149 45t76 125h316q-22 -95 -66.5 -170.5t-100 -124t-124 -80.5t-135 -45t-136.5 -13
q-267 0 -415 158.5t-148 425.5q0 261 155.5 419.5t407.5 158.5zM379 -383l35 111q52 -29 135 -29q98 0 98 59q0 28 -22 43t-60 15q-47 0 -78 -19l-61 35l104 170h127l-67 -106q24 8 76 8q73 0 131.5 -34.5t58.5 -105.5q0 -61 -42 -102t-103.5 -57.5t-137.5 -16.5
q-102 0 -194 29z" />
    <glyph glyph-name="egrave" unicode="&#xe8;" horiz-adv-x="1269" 
d="M897 346h311q-47 -125 -137 -211t-194 -124t-218 -38q-272 0 -438 156t-166 428q0 171 80.5 304.5t214.5 203.5t295 70q273 0 428.5 -186.5t138.5 -483.5h-817q7 -111 80.5 -170t173.5 -59q183 0 248 110zM645 877q-97 0 -165 -52t-81 -155h478q-4 101 -67.5 154
t-164.5 53zM506 1247l-324 238h383l195 -238h-254z" />
    <glyph glyph-name="eacute" unicode="&#xe9;" horiz-adv-x="1269" 
d="M897 346h311q-47 -125 -137 -211t-194 -124t-218 -38q-272 0 -438 156t-166 428q0 171 80.5 304.5t214.5 203.5t295 70q273 0 428.5 -186.5t138.5 -483.5h-817q7 -111 80.5 -170t173.5 -59q183 0 248 110zM645 877q-97 0 -165 -52t-81 -155h478q-4 101 -67.5 154
t-164.5 53zM1083 1485l-323 -238h-254l194 238h383z" />
    <glyph glyph-name="ecircumflex" unicode="&#xea;" horiz-adv-x="1269" 
d="M897 346h311q-47 -125 -137 -211t-194 -124t-218 -38q-272 0 -438 156t-166 428q0 171 80.5 304.5t214.5 203.5t295 70q273 0 428.5 -186.5t138.5 -483.5h-817q7 -111 80.5 -170t173.5 -59q183 0 248 110zM645 877q-97 0 -165 -52t-81 -155h478q-4 101 -67.5 154
t-164.5 53zM801 1485l278 -238h-307l-127 94l-129 -94h-311l289 238h307z" />
    <glyph glyph-name="edieresis" unicode="&#xeb;" horiz-adv-x="1269" 
d="M897 346h311q-47 -125 -137 -211t-194 -124t-218 -38q-272 0 -438 156t-166 428q0 171 80.5 304.5t214.5 203.5t295 70q273 0 428.5 -186.5t138.5 -483.5h-817q7 -111 80.5 -170t173.5 -59q183 0 248 110zM645 877q-97 0 -165 -52t-81 -155h478q-4 101 -67.5 154
t-164.5 53zM254 1225v260h303v-260h-303zM713 1485h301v-260h-301v260z" />
    <glyph glyph-name="igrave" unicode="&#xec;" horiz-adv-x="581" 
d="M121 1102h340v-1102h-340v1102zM166 1247l-324 238h383l195 -238h-254z" />
    <glyph glyph-name="iacute" unicode="&#xed;" horiz-adv-x="581" 
d="M121 1102h340v-1102h-340v1102zM741 1485l-323 -238h-254l194 238h383z" />
    <glyph glyph-name="icircumflex" unicode="&#xee;" horiz-adv-x="581" 
d="M121 1102h340v-1102h-340v1102zM453 1485l278 -238h-307l-127 94l-129 -94h-311l288 238h308z" />
    <glyph glyph-name="idieresis" unicode="&#xef;" horiz-adv-x="581" 
d="M121 1102h340v-1102h-340v1102zM-86 1225v260h303v-260h-303zM373 1485h301v-260h-301v260z" />
    <glyph glyph-name="eth" unicode="&#xf0;" horiz-adv-x="1275" 
d="M754 1470l145 89l119 -58l-168 -100q169 -138 270 -336.5t101 -427.5q0 -316 -164.5 -490t-435.5 -174q-261 0 -413.5 155t-152.5 413q0 259 139.5 422t344.5 163q107 0 198 -49t140 -125l2 2q-47 163 -252 312l-138 -82l-116 55l155 94q-80 49 -178 94l256 121
q94 -42 148 -78zM645 864q-107 0 -175.5 -82t-68.5 -231t68.5 -232t175.5 -83t174.5 77t67.5 238q0 160 -67.5 236.5t-174.5 76.5z" />
    <glyph glyph-name="ntilde" unicode="&#xf1;" horiz-adv-x="1271" 
d="M459 1102v-146q42 70 131.5 120t210.5 50q204 0 287 -114t83 -350v-662h-337v578q0 41 -1 66.5t-4.5 59t-10 54t-19 43t-30 35t-44.5 20.5t-61 8q-108 0 -156.5 -72t-48.5 -227v-565h-338v1102h338zM788 1417q91 0 109 90h199q-23 -128 -94.5 -194t-182.5 -66
q-60 0 -112.5 22.5t-93.5 45t-74 22.5q-90 0 -105 -90h-198q21 125 91 192.5t187 67.5q58 0 107 -22.5t89.5 -45t77.5 -22.5z" />
    <glyph glyph-name="ograve" unicode="&#xf2;" horiz-adv-x="1277" 
d="M639 872q-109 0 -174.5 -75t-65.5 -242q0 -165 65 -242t175 -77t175 77t65 242q0 167 -65.5 242t-174.5 75zM639 1135q93 0 178 -21.5t159.5 -68t129 -113.5t86 -164t31.5 -213q0 -145 -48 -258.5t-130 -183t-185.5 -105t-220.5 -35.5t-220.5 35.5t-185.5 105t-130 183
t-48 258.5q0 116 31.5 213t86 164t129 113.5t159.5 68t178 21.5zM512 1247l-324 238h383l195 -238h-254z" />
    <glyph glyph-name="oacute" unicode="&#xf3;" horiz-adv-x="1277" 
d="M639 872q-109 0 -174.5 -75t-65.5 -242q0 -165 65 -242t175 -77t175 77t65 242q0 167 -65.5 242t-174.5 75zM639 1135q93 0 178 -21.5t159.5 -68t129 -113.5t86 -164t31.5 -213q0 -145 -48 -258.5t-130 -183t-185.5 -105t-220.5 -35.5t-220.5 35.5t-185.5 105t-130 183
t-48 258.5q0 116 31.5 213t86 164t129 113.5t159.5 68t178 21.5zM1090 1485l-324 -238h-254l195 238h383z" />
    <glyph glyph-name="ocircumflex" unicode="&#xf4;" horiz-adv-x="1277" 
d="M639 872q-109 0 -174.5 -75t-65.5 -242q0 -165 65 -242t175 -77t175 77t65 242q0 167 -65.5 242t-174.5 75zM639 1135q93 0 178 -21.5t159.5 -68t129 -113.5t86 -164t31.5 -213q0 -145 -48 -258.5t-130 -183t-185.5 -105t-220.5 -35.5t-220.5 35.5t-185.5 105t-130 183
t-48 258.5q0 116 31.5 213t86 164t129 113.5t159.5 68t178 21.5zM799 1485l278 -238h-307l-127 94l-129 -94h-311l289 238h307z" />
    <glyph glyph-name="otilde" unicode="&#xf5;" horiz-adv-x="1277" 
d="M639 872q-109 0 -174.5 -75t-65.5 -242q0 -165 65 -242t175 -77t175 77t65 242q0 167 -65.5 242t-174.5 75zM639 1135q93 0 178 -21.5t159.5 -68t129 -113.5t86 -164t31.5 -213q0 -145 -48 -258.5t-130 -183t-185.5 -105t-220.5 -35.5t-220.5 35.5t-185.5 105t-130 183
t-48 258.5q0 116 31.5 213t86 164t129 113.5t159.5 68t178 21.5zM762 1417q90 0 108 90h199q-23 -128 -94 -194t-182 -66q-60 0 -113 22.5t-94 45t-74 22.5q-89 0 -104 -90h-199q21 125 91 192.5t187 67.5q46 0 87.5 -14t67 -31t58 -31t62.5 -14z" />
    <glyph glyph-name="odieresis" unicode="&#xf6;" horiz-adv-x="1277" 
d="M639 872q-109 0 -174.5 -75t-65.5 -242q0 -165 65 -242t175 -77t175 77t65 242q0 167 -65.5 242t-174.5 75zM639 1135q93 0 178 -21.5t159.5 -68t129 -113.5t86 -164t31.5 -213q0 -145 -48 -258.5t-130 -183t-185.5 -105t-220.5 -35.5t-220.5 35.5t-185.5 105t-130 183
t-48 258.5q0 116 31.5 213t86 164t129 113.5t159.5 68t178 21.5zM260 1225v260h303v-260h-303zM719 1485h301v-260h-301v260z" />
    <glyph glyph-name="divide" unicode="&#xf7;" horiz-adv-x="1388" 
d="M504 0v365h381v-365h-381zM504 737v365h381v-365h-381zM1286 408h-1184v284h1184v-284z" />
    <glyph glyph-name="oslash" unicode="&#xf8;" horiz-adv-x="1277" 
d="M639 1135q193 0 344 -95l92 107l103 -90l-91 -105q136 -159 136 -397q0 -145 -48 -258.5t-130 -183t-185.5 -105t-220.5 -35.5q-187 0 -328 84l-114 -131l-101 92l107 123q-148 158 -148 414q0 116 31.5 213t86 164t129 113.5t159.5 68t178 21.5zM639 872
q-109 0 -174.5 -75t-65.5 -242q0 -88 23 -162l369 426q-56 53 -152 53zM879 555q0 67 -17 137l-362 -416q55 -40 139 -40q110 0 175 77t65 242z" />
    <glyph glyph-name="ugrave" unicode="&#xf9;" horiz-adv-x="1263" 
d="M803 0v154q-37 -59 -77 -96.5t-102.5 -61t-144.5 -23.5q-108 0 -182.5 30t-118 91t-62 144.5t-18.5 199.5v664h338v-580q0 -49 1 -77t6 -66.5t15.5 -60t28.5 -42.5t47.5 -30.5t69.5 -9.5q108 0 153.5 65t45.5 219v582h338v-1102h-338zM512 1247l-324 238h383l195 -238
h-254z" />
    <glyph glyph-name="uacute" unicode="&#xfa;" horiz-adv-x="1263" 
d="M803 0v154q-37 -59 -77 -96.5t-102.5 -61t-144.5 -23.5q-108 0 -182.5 30t-118 91t-62 144.5t-18.5 199.5v664h338v-580q0 -49 1 -77t6 -66.5t15.5 -60t28.5 -42.5t47.5 -30.5t69.5 -9.5q108 0 153.5 65t45.5 219v582h338v-1102h-338zM1049 1485l-324 -238h-254l195 238
h383z" />
    <glyph glyph-name="ucircumflex" unicode="&#xfb;" horiz-adv-x="1263" 
d="M803 0v154q-37 -59 -77 -96.5t-102.5 -61t-144.5 -23.5q-108 0 -182.5 30t-118 91t-62 144.5t-18.5 199.5v664h338v-580q0 -49 1 -77t6 -66.5t15.5 -60t28.5 -42.5t47.5 -30.5t69.5 -9.5q108 0 153.5 65t45.5 219v582h338v-1102h-338zM778 1485l279 -238h-307l-127 94
l-129 -94h-312l289 238h307z" />
    <glyph glyph-name="udieresis" unicode="&#xfc;" horiz-adv-x="1263" 
d="M803 0v154q-37 -59 -77 -96.5t-102.5 -61t-144.5 -23.5q-108 0 -182.5 30t-118 91t-62 144.5t-18.5 199.5v664h338v-580q0 -49 1 -77t6 -66.5t15.5 -60t28.5 -42.5t47.5 -30.5t69.5 -9.5q108 0 153.5 65t45.5 219v582h338v-1102h-338zM240 1225v260h303v-260h-303z
M698 1485h301v-260h-301v260z" />
    <glyph glyph-name="yacute" unicode="&#xfd;" horiz-adv-x="1153" 
d="M242 -358h-109v243h68q106 0 141 15.5t59 76.5l11 29l-412 1096h371l202 -690l218 690h362l-432 -1102q-35 -89 -65.5 -145.5t-68 -101t-85.5 -67t-110 -33.5t-150 -11zM1026 1485l-324 -238h-253l194 238h383z" />
    <glyph glyph-name="thorn" unicode="&#xfe;" horiz-adv-x="1331" 
d="M459 1485v-533q47 88 142.5 131t195.5 43q217 0 351 -154.5t134 -420.5t-134 -422t-351 -156q-100 0 -195.5 43t-142.5 131v-505h-338v1843h338zM686 864q-107 0 -175.5 -76.5t-68.5 -236.5t68.5 -237.5t175.5 -77.5q106 0 176 83.5t70 231.5t-70 230.5t-176 82.5z" />
    <glyph glyph-name="ydieresis" unicode="&#xff;" horiz-adv-x="1153" 
d="M242 -358h-109v243h68q106 0 141 15.5t59 76.5l11 29l-412 1096h371l202 -690l218 690h362l-432 -1102q-35 -89 -65.5 -145.5t-68 -101t-85.5 -67t-110 -33.5t-150 -11zM197 1225v260h303v-260h-303zM655 1485h301v-260h-301v260z" />
    <glyph glyph-name="Amacron" unicode="&#x100;" horiz-adv-x="1484" 
d="M-10 0l559 1485h385l561 -1485h-381l-90 264h-573l-89 -264h-372zM739 1114l-192 -565h383zM1085 1624h-686v195h686v-195z" />
    <glyph glyph-name="amacron" unicode="&#x101;" horiz-adv-x="1222" 
d="M795 688v43q0 95 -46 135.5t-141 40.5q-83 0 -134.5 -41.5t-61.5 -120.5h-316q13 163 159 277.5t382 114.5q246 0 370.5 -110t120.5 -353l-4 -240v-115q0 -210 25 -319h-332l-4 133q-112 -160 -371 -160q-162 0 -271.5 88.5t-109.5 235.5q0 79 36 141t98 104t157.5 72
t201 47t241.5 27zM803 463v26q-67 -7 -112 -12.5t-94 -14.5t-79.5 -20.5t-57 -28t-38.5 -39.5t-12 -52q0 -53 44 -86t111 -33q54 0 95 12.5t74.5 41t51 80.5t17.5 126zM946 1268h-641v219h641v-219z" />
    <glyph glyph-name="Abreve" unicode="&#x102;" horiz-adv-x="1484" 
d="M-10 0l559 1485h385l561 -1485h-381l-90 264h-573l-89 -264h-372zM739 1114l-192 -565h383zM891 1815h242q-12 -127 -106.5 -184.5t-287.5 -57.5q-188 0 -283.5 58t-105.5 184h242q13 -97 147 -97q139 0 152 97z" />
    <glyph glyph-name="abreve" unicode="&#x103;" horiz-adv-x="1222" 
d="M795 688v43q0 95 -46 135.5t-141 40.5q-83 0 -134.5 -41.5t-61.5 -120.5h-316q13 163 159 277.5t382 114.5q246 0 370.5 -110t120.5 -353l-4 -240v-115q0 -210 25 -319h-332l-4 133q-112 -160 -371 -160q-162 0 -271.5 88.5t-109.5 235.5q0 79 36 141t98 104t157.5 72
t201 47t241.5 27zM803 463v26q-67 -7 -112 -12.5t-94 -14.5t-79.5 -20.5t-57 -28t-38.5 -39.5t-12 -52q0 -53 44 -86t111 -33q54 0 95 12.5t74.5 41t51 80.5t17.5 126zM739 1485h222q-14 -104 -100.5 -176t-250.5 -72q-159 0 -247.5 73t-96.5 175h221q6 -35 38.5 -58.5
t86.5 -23.5t87.5 23.5t39.5 58.5z" />
    <glyph glyph-name="Aogonek" unicode="&#x104;" horiz-adv-x="1484" 
d="M-10 0l559 1485h385l561 -1485q-90 -44 -135 -80.5t-45 -79.5q0 -78 80 -78q43 0 100 19v-166q-25 -7 -85.5 -14t-100.5 -7q-51 0 -99.5 14t-90 40.5t-66.5 70t-25 97.5q0 38 14.5 74.5t30 58t41.5 51.5l-90 264h-573l-89 -264h-372zM739 1114l-192 -565h383z" />
    <glyph glyph-name="aogonek" unicode="&#x105;" horiz-adv-x="1222" 
d="M795 688v43q0 95 -46 135.5t-141 40.5q-83 0 -134.5 -41.5t-61.5 -120.5h-316q13 163 159 277.5t382 114.5q246 0 370.5 -110t120.5 -353l-4 -240v-115q0 -210 25 -319q-13 -6 -33.5 -16t-31.5 -15.5l-28 -14t-26 -14t-21 -13.5t-18 -15t-12.5 -15.5t-9 -17t-2.5 -18.5
q0 -74 82 -74q37 0 98 18v-167q-80 -23 -158 -23q-83 0 -153 20t-118 66t-48 111q0 58 37.5 102t109.5 86l-4 133q-112 -160 -371 -160q-162 0 -271.5 88.5t-109.5 235.5q0 79 36 141t98 104t157.5 72t201 47t241.5 27zM803 463v26q-67 -7 -112 -12.5t-94 -14.5t-79.5 -20.5
t-57 -28t-38.5 -39.5t-12 -52q0 -53 44 -86t111 -33q54 0 95 12.5t74.5 41t51 80.5t17.5 126z" />
    <glyph glyph-name="Cacute" unicode="&#x106;" horiz-adv-x="1536" 
d="M1151 553h344q-42 -260 -235 -420t-472 -160q-346 0 -544.5 206.5t-198.5 563.5q0 352 203 559t551 207q275 0 462 -161t224 -418h-344q-28 145 -125 218t-230 73q-160 0 -265 -128.5t-105 -349.5q0 -228 105 -354.5t270 -126.5q49 0 92.5 8.5t87.5 29.5t78.5 53
t61.5 83.5t40 116.5zM1245 1815l-325 -232h-299l210 232h414z" />
    <glyph glyph-name="cacute" unicode="&#x107;" horiz-adv-x="1220" 
d="M618 1135q72 0 138.5 -13t133.5 -45.5t120 -81t94.5 -125t60.5 -172.5h-315q-42 174 -211 174q-102 0 -171 -76.5t-69 -240.5q0 -86 20 -150.5t55 -100t76 -52t89 -16.5q92 0 149 45t76 125h316q-22 -95 -66.5 -170.5t-100 -124t-124 -80.5t-135 -45t-136.5 -13
q-267 0 -415 158.5t-148 425.5q0 261 155.5 419.5t407.5 158.5zM1067 1485l-324 -238h-254l195 238h383z" />
    <glyph glyph-name="Ccircumflex" unicode="&#x108;" horiz-adv-x="1536" 
d="M1151 553h344q-42 -260 -235 -420t-472 -160q-346 0 -544.5 206.5t-198.5 563.5q0 352 203 559t551 207q275 0 462 -161t224 -418h-344q-28 145 -125 218t-230 73q-160 0 -265 -128.5t-105 -349.5q0 -228 105 -354.5t270 -126.5q49 0 92.5 8.5t87.5 29.5t78.5 53
t61.5 83.5t40 116.5zM967 1815l280 -232h-336l-110 100l-121 -100h-332l287 232h332z" />
    <glyph glyph-name="ccircumflex" unicode="&#x109;" horiz-adv-x="1220" 
d="M618 1135q72 0 138.5 -13t133.5 -45.5t120 -81t94.5 -125t60.5 -172.5h-315q-42 174 -211 174q-102 0 -171 -76.5t-69 -240.5q0 -86 20 -150.5t55 -100t76 -52t89 -16.5q92 0 149 45t76 125h316q-22 -95 -66.5 -170.5t-100 -124t-124 -80.5t-135 -45t-136.5 -13
q-267 0 -415 158.5t-148 425.5q0 261 155.5 419.5t407.5 158.5zM782 1485l279 -238h-307l-127 94l-129 -94h-312l289 238h307z" />
    <glyph glyph-name="Cdotaccent" unicode="&#x10a;" horiz-adv-x="1536" 
d="M1151 553h344q-42 -260 -235 -420t-472 -160q-346 0 -544.5 206.5t-198.5 563.5q0 352 203 559t551 207q275 0 462 -161t224 -418h-344q-28 145 -125 218t-230 73q-160 0 -265 -128.5t-105 -349.5q0 -228 105 -354.5t270 -126.5q49 0 92.5 8.5t87.5 29.5t78.5 53
t61.5 83.5t40 116.5zM627 1815h350v-232h-350v232z" />
    <glyph glyph-name="cdotaccent" unicode="&#x10b;" horiz-adv-x="1220" 
d="M618 1135q72 0 138.5 -13t133.5 -45.5t120 -81t94.5 -125t60.5 -172.5h-315q-42 174 -211 174q-102 0 -171 -76.5t-69 -240.5q0 -86 20 -150.5t55 -100t76 -52t89 -16.5q92 0 149 45t76 125h316q-22 -95 -66.5 -170.5t-100 -124t-124 -80.5t-135 -45t-136.5 -13
q-267 0 -415 158.5t-148 425.5q0 261 155.5 419.5t407.5 158.5zM465 1485h303v-238h-303v238z" />
    <glyph glyph-name="Ccaron" unicode="&#x10c;" horiz-adv-x="1536" 
d="M1151 553h344q-42 -260 -235 -420t-472 -160q-346 0 -544.5 206.5t-198.5 563.5q0 352 203 559t551 207q275 0 462 -161t224 -418h-344q-28 145 -125 218t-230 73q-160 0 -265 -128.5t-105 -349.5q0 -228 105 -354.5t270 -126.5q49 0 92.5 8.5t87.5 29.5t78.5 53
t61.5 83.5t40 116.5zM631 1583l-281 232h336l111 -103l121 103h331l-286 -232h-332z" />
    <glyph glyph-name="ccaron" unicode="&#x10d;" horiz-adv-x="1220" 
d="M618 1135q72 0 138.5 -13t133.5 -45.5t120 -81t94.5 -125t60.5 -172.5h-315q-42 174 -211 174q-102 0 -171 -76.5t-69 -240.5q0 -86 20 -150.5t55 -100t76 -52t89 -16.5q92 0 149 45t76 125h316q-22 -95 -66.5 -170.5t-100 -124t-124 -80.5t-135 -45t-136.5 -13
q-267 0 -415 158.5t-148 425.5q0 261 155.5 419.5t407.5 158.5zM461 1247l-281 238h309l125 -94l129 94h312l-289 -238h-305z" />
    <glyph glyph-name="Dcaron" unicode="&#x10e;" horiz-adv-x="1536" 
d="M1122 743q0 82 -14 148t-38 112.5t-61 80.5t-77 54t-92.5 32t-100.5 16t-108 4h-146v-895h146q86 0 150.5 8.5t132 36.5t110.5 75.5t70.5 130.5t27.5 197zM135 1485h490q151 0 277 -22.5t237.5 -76.5t188 -138t121 -212t44.5 -293t-44.5 -293.5t-121 -212.5t-188 -138
t-237.5 -76.5t-277 -22.5h-490v1485zM604 1583l-280 232h335l111 -103l121 103h332l-287 -232h-332z" />
    <glyph glyph-name="dcaron" unicode="&#x10f;" horiz-adv-x="1601" 
d="M1642 1485l-120 -348h-230l41 348h309zM872 1485h338v-1485h-338v147q-51 -85 -145 -129.5t-192 -44.5q-217 0 -351.5 156t-134.5 422t134.5 420.5t351.5 154.5q98 0 192 -44.5t145 -129.5v533zM645 864q-106 0 -176 -82.5t-70 -230.5t70 -231.5t176 -83.5q108 0 176 77
t68 238t-68 237t-176 76z" />
    <glyph glyph-name="Dcroat" unicode="&#x110;" horiz-adv-x="1605" 
d="M205 1485h489q151 0 277 -22.5t237.5 -77t188.5 -138t121.5 -211.5t44.5 -293t-44.5 -293.5t-121.5 -212.5t-188.5 -138t-237.5 -76.5t-277 -22.5h-489v598h-182v307h182v580zM1192 743q0 114 -27.5 197t-71 130.5t-111 75t-132 36t-150.5 8.5h-145v-285h215v-307h-215
v-303h145q86 0 150.5 8.5t132 36.5t111 75.5t71 130.5t27.5 197z" />
    <glyph glyph-name="dcroat" unicode="&#x111;" horiz-adv-x="1341" 
d="M872 1485h338v-150h131v-178h-131v-1157h-338v147q-51 -85 -145 -129.5t-192 -44.5q-217 0 -351.5 156t-134.5 422t134.5 420.5t351.5 154.5q98 0 192 -44.5t145 -129.5v205h-241v178h241v150zM645 864q-106 0 -176 -82.5t-70 -230.5t70 -231.5t176 -83.5q108 0 176 77
t68 238t-68 237t-176 76z" />
    <glyph glyph-name="Emacron" unicode="&#x112;" horiz-adv-x="1357" 
d="M135 0v1485h1139v-307h-789v-260h746v-310h-746v-299h789v-309h-1139zM1055 1624h-686v195h686v-195z" />
    <glyph glyph-name="emacron" unicode="&#x113;" horiz-adv-x="1269" 
d="M897 346h311q-47 -125 -137 -211t-194 -124t-218 -38q-272 0 -438 156t-166 428q0 171 80.5 304.5t214.5 203.5t295 70q273 0 428.5 -186.5t138.5 -483.5h-817q7 -111 80.5 -170t173.5 -59q183 0 248 110zM645 877q-97 0 -165 -52t-81 -155h478q-4 101 -67.5 154
t-164.5 53zM954 1268h-641v219h641v-219z" />
    <glyph glyph-name="Ebreve" unicode="&#x114;" horiz-adv-x="1357" 
d="M135 0v1485h1139v-307h-789v-260h746v-310h-746v-299h789v-309h-1139zM860 1815h242q-12 -127 -106 -184.5t-287 -57.5q-188 0 -284 58t-106 184h242q13 -97 148 -97q138 0 151 97z" />
    <glyph glyph-name="ebreve" unicode="&#x115;" horiz-adv-x="1269" 
d="M897 346h311q-47 -125 -137 -211t-194 -124t-218 -38q-272 0 -438 156t-166 428q0 171 80.5 304.5t214.5 203.5t295 70q273 0 428.5 -186.5t138.5 -483.5h-817q7 -111 80.5 -170t173.5 -59q183 0 248 110zM645 877q-97 0 -165 -52t-81 -155h478q-4 101 -67.5 154
t-164.5 53zM760 1485h221q-14 -104 -100 -176t-250 -72q-159 0 -247.5 73t-96.5 175h221q6 -35 38.5 -58.5t86.5 -23.5t87.5 23.5t39.5 58.5z" />
    <glyph glyph-name="Edotaccent" unicode="&#x116;" horiz-adv-x="1357" 
d="M135 0v1485h1139v-307h-789v-260h746v-310h-746v-299h789v-309h-1139zM530 1815h351v-232h-351v232z" />
    <glyph glyph-name="edotaccent" unicode="&#x117;" horiz-adv-x="1269" 
d="M897 346h311q-47 -125 -137 -211t-194 -124t-218 -38q-272 0 -438 156t-166 428q0 171 80.5 304.5t214.5 203.5t295 70q273 0 428.5 -186.5t138.5 -483.5h-817q7 -111 80.5 -170t173.5 -59q183 0 248 110zM645 877q-97 0 -165 -52t-81 -155h478q-4 101 -67.5 154
t-164.5 53zM481 1485h303v-238h-303v238z" />
    <glyph glyph-name="Eogonek" unicode="&#x118;" horiz-adv-x="1357" 
d="M135 0v1485h1139v-307h-789v-260h746v-310h-746v-299h789v-309h-1139zM924 0h348q-130 -62 -165 -90q-36 -29 -36 -55q0 -38 30 -55t73 -17q40 0 100 20v-168q-25 -7 -80.5 -13.5t-95.5 -6.5q-78 0 -147.5 20t-119 66t-49.5 111q0 109 142 188z" />
    <glyph glyph-name="eogonek" unicode="&#x119;" horiz-adv-x="1269" 
d="M985 -193v-167q-81 -23 -158 -23q-85 0 -153.5 17t-117 61t-48.5 110q0 51 20.5 88t65.5 82q-245 21 -392 175t-147 407q0 171 80.5 304.5t214.5 203.5t295 70q172 0 302 -78.5t198.5 -218.5t68.5 -320v-26q0 -17 -2 -27h-817q7 -110 81 -169.5t173 -59.5q183 0 248 110
h311q-59 -152 -194 -260q-209 -157 -209 -223q0 -37 22.5 -55.5t59.5 -18.5t98 18zM645 877q-97 0 -165 -52t-81 -155h478q-4 101 -67.5 154t-164.5 53z" />
    <glyph glyph-name="Ecaron" unicode="&#x11a;" horiz-adv-x="1357" 
d="M135 0v1485h1139v-307h-789v-260h746v-310h-746v-299h789v-309h-1139zM541 1583l-281 232h336l111 -103l120 103h332l-287 -232h-331z" />
    <glyph glyph-name="ecaron" unicode="&#x11b;" horiz-adv-x="1269" 
d="M897 346h311q-47 -125 -137 -211t-194 -124t-218 -38q-272 0 -438 156t-166 428q0 171 80.5 304.5t214.5 203.5t295 70q273 0 428.5 -186.5t138.5 -483.5h-817q7 -111 80.5 -170t173.5 -59q183 0 248 110zM645 877q-97 0 -165 -52t-81 -155h478q-4 101 -67.5 154
t-164.5 53zM477 1247l-280 238h309l125 -94l129 94h311l-289 -238h-305z" />
    <glyph glyph-name="Gcircumflex" unicode="&#x11c;" horiz-adv-x="1603" 
d="M803 1509q255 0 433.5 -126t231.5 -363h-344q-28 85 -110 143t-215 58q-168 0 -275.5 -123.5t-107.5 -349.5q0 -231 104.5 -358.5t284.5 -127.5q51 0 97 7.5t89 26.5t74.5 47t50.5 71t19 98v29h-359v286h709v-827h-268l-11 164q-72 -98 -183 -144.5t-271 -46.5
q-327 0 -517 209t-190 566q0 231 95.5 404.5t266.5 265t396 91.5zM965 1815l280 -232h-336l-110 100l-121 -100h-332l287 232h332z" />
    <glyph glyph-name="gcircumflex" unicode="&#x11d;" horiz-adv-x="1331" 
d="M874 952v150h336v-955q0 -120 -30 -212.5t-80.5 -152t-124 -98t-154 -54t-176.5 -15.5q-119 0 -218.5 30.5t-167.5 83t-110 120.5t-55 145h318q40 -141 229 -141q125 0 179 57.5t54 171.5v131q-51 -85 -145.5 -129.5t-193.5 -44.5q-219 0 -352.5 144t-133.5 401
t133.5 399.5t352.5 142.5q99 0 193.5 -44.5t145.5 -129.5zM645 864q-108 0 -177 -70.5t-69 -209.5q0 -141 69 -212t177 -71q110 0 177 66.5t67 216.5q0 280 -244 280zM829 1485l279 -238h-307l-127 94l-129 -94h-312l289 238h307z" />
    <glyph glyph-name="Gbreve" unicode="&#x11e;" horiz-adv-x="1603" 
d="M803 1509q255 0 433.5 -126t231.5 -363h-344q-28 85 -110 143t-215 58q-168 0 -275.5 -123.5t-107.5 -349.5q0 -231 104.5 -358.5t284.5 -127.5q51 0 97 7.5t89 26.5t74.5 47t50.5 71t19 98v29h-359v286h709v-827h-268l-11 164q-72 -98 -183 -144.5t-271 -46.5
q-327 0 -517 209t-190 566q0 231 95.5 404.5t266.5 265t396 91.5zM948 1815h242q-12 -127 -106 -184.5t-287 -57.5q-188 0 -283.5 58t-105.5 184h241q13 -97 148 -97q138 0 151 97z" />
    <glyph glyph-name="gbreve" unicode="&#x11f;" horiz-adv-x="1331" 
d="M874 952v150h336v-955q0 -120 -30 -212.5t-80.5 -152t-124 -98t-154 -54t-176.5 -15.5q-119 0 -218.5 30.5t-167.5 83t-110 120.5t-55 145h318q40 -141 229 -141q125 0 179 57.5t54 171.5v131q-51 -85 -145.5 -129.5t-193.5 -44.5q-219 0 -352.5 144t-133.5 401
t133.5 399.5t352.5 142.5q99 0 193.5 -44.5t145.5 -129.5zM645 864q-108 0 -177 -70.5t-69 -209.5q0 -141 69 -212t177 -71q110 0 177 66.5t67 216.5q0 280 -244 280zM756 1485h221q-14 -104 -100 -176t-250 -72q-159 0 -247.5 73t-96.5 175h221q6 -35 38.5 -58.5
t86.5 -23.5t87.5 23.5t39.5 58.5z" />
    <glyph glyph-name="Gdotaccent" unicode="&#x120;" horiz-adv-x="1603" 
d="M803 1509q255 0 433.5 -126t231.5 -363h-344q-28 85 -110 143t-215 58q-168 0 -275.5 -123.5t-107.5 -349.5q0 -231 104.5 -358.5t284.5 -127.5q51 0 97 7.5t89 26.5t74.5 47t50.5 71t19 98v29h-359v286h709v-827h-268l-11 164q-72 -98 -183 -144.5t-271 -46.5
q-327 0 -517 209t-190 566q0 231 95.5 404.5t266.5 265t396 91.5zM618 1815h351v-232h-351v232z" />
    <glyph glyph-name="gdotaccent" unicode="&#x121;" horiz-adv-x="1331" 
d="M874 952v150h336v-955q0 -120 -30 -212.5t-80.5 -152t-124 -98t-154 -54t-176.5 -15.5q-119 0 -218.5 30.5t-167.5 83t-110 120.5t-55 145h318q40 -141 229 -141q125 0 179 57.5t54 171.5v131q-51 -85 -145.5 -129.5t-193.5 -44.5q-219 0 -352.5 144t-133.5 401
t133.5 399.5t352.5 142.5q99 0 193.5 -44.5t145.5 -129.5zM645 864q-108 0 -177 -70.5t-69 -209.5q0 -141 69 -212t177 -71q110 0 177 66.5t67 216.5q0 280 -244 280zM481 1485h303v-238h-303v238z" />
    <glyph glyph-name="uni0122" unicode="&#x122;" horiz-adv-x="1603" 
d="M803 1509q255 0 433.5 -126t231.5 -363h-344q-28 85 -110 143t-215 58q-168 0 -275.5 -123.5t-107.5 -349.5q0 -231 104.5 -358.5t284.5 -127.5q51 0 97 7.5t89 26.5t74.5 47t50.5 71t19 98v29h-359v286h709v-827h-268l-11 164q-72 -98 -183 -144.5t-271 -46.5
q-327 0 -517 209t-190 566q0 231 95.5 404.5t266.5 265t396 91.5zM637 -279v205h260v-217l-90 -182h-176l80 194h-74z" />
    <glyph glyph-name="uni0123" unicode="&#x123;" horiz-adv-x="1331" 
d="M758 1466v-204h-260v217l90 182h176l-78 -195h72zM874 952v150h336v-955q0 -120 -30 -212.5t-80.5 -152t-124 -98t-154 -54t-176.5 -15.5q-119 0 -218.5 30.5t-167.5 83t-110 120.5t-55 145h318q40 -141 229 -141q125 0 179 57.5t54 171.5v131q-51 -85 -145.5 -129.5
t-193.5 -44.5q-219 0 -352.5 144t-133.5 401t133.5 399.5t352.5 142.5q99 0 193.5 -44.5t145.5 -129.5zM645 864q-108 0 -177 -70.5t-69 -209.5q0 -141 69 -212t177 -71q110 0 177 66.5t67 216.5q0 280 -244 280z" />
    <glyph glyph-name="Hcircumflex" unicode="&#x124;" horiz-adv-x="1581" 
d="M1096 1485h350v-1485h-350v608h-611v-608h-350v1485h350v-567h611v567zM961 1815l280 -232h-336l-110 100l-121 -100h-332l287 232h332z" />
    <glyph glyph-name="hcircumflex" unicode="&#x125;" horiz-adv-x="1271" 
d="M459 1485v-529q42 70 131.5 120t210.5 50q204 0 287 -114t83 -350v-662h-337v578q0 49 -1 77t-6 66.5t-15.5 60t-28.5 42.5t-47.5 30.5t-69.5 9.5q-108 0 -157.5 -72t-49.5 -227v-565h-338v1485h338zM463 1815l280 -232h-335l-111 100l-121 -100h-332l287 232h332z" />
    <glyph glyph-name="Hbar" unicode="&#x126;" horiz-adv-x="1581" 
d="M1096 1485h350v-197h115v-219h-115v-1069h-350v608h-611v-608h-350v1069h-115v219h115v197h350v-197h611v197zM485 918h611v151h-611v-151z" />
    <glyph glyph-name="hbar" unicode="&#x127;" horiz-adv-x="1312" 
d="M483 1157v-201q42 70 131.5 120t210.5 50q105 0 177.5 -30t114.5 -91t60.5 -144t18.5 -199v-662h-338v578q0 49 -1 77t-6 66.5t-15.5 60t-28.5 42.5t-47.5 30.5t-69.5 9.5q-108 0 -157.5 -72t-49.5 -227v-565h-338v1157h-155v178h155v150h338v-150h219v-178h-219z" />
    <glyph glyph-name="Itilde" unicode="&#x128;" horiz-adv-x="618" 
d="M485 1485v-1485h-350v1485h350zM436 1739q96 0 111 76h198q-14 -73 -48.5 -123.5t-80 -73.5t-85 -32t-80.5 -9q-57 0 -105.5 19t-87.5 38t-72 19q-93 0 -108 -76h-199q14 72 48.5 122.5t80.5 74t85.5 32.5t80.5 9q57 0 103 -19t84 -38t75 -19z" />
    <glyph glyph-name="itilde" unicode="&#x129;" horiz-adv-x="581" 
d="M121 1102h340v-1102h-340v1102zM416 1417q90 0 108 90h199q-23 -128 -94.5 -194t-182.5 -66q-60 0 -112.5 22.5t-93.5 45t-74 22.5q-90 0 -105 -90h-198q21 125 91 192.5t187 67.5q46 0 87.5 -14t67 -31t58 -31t62.5 -14z" />
    <glyph glyph-name="Imacron" unicode="&#x12a;" horiz-adv-x="618" 
d="M485 1485v-1485h-350v1485h350zM655 1624h-686v195h686v-195z" />
    <glyph glyph-name="imacron" unicode="&#x12b;" horiz-adv-x="581" 
d="M121 1102h340v-1102h-340v1102zM614 1268h-641v219h641v-219z" />
    <glyph glyph-name="Ibreve" unicode="&#x12c;" horiz-adv-x="618" 
d="M485 1485v-1485h-350v1485h350zM461 1815h241q-12 -127 -106 -184.5t-287 -57.5q-188 0 -283.5 58t-105.5 184h242q13 -97 147 -97q139 0 152 97z" />
    <glyph glyph-name="ibreve" unicode="&#x12d;" horiz-adv-x="581" 
d="M121 1102h340v-1102h-340v1102zM420 1485h221q-14 -104 -100 -176t-250 -72q-159 0 -247.5 73t-96.5 175h221q6 -35 38.5 -58.5t86.5 -23.5t87.5 23.5t39.5 58.5z" />
    <glyph glyph-name="Iogonek" unicode="&#x12e;" horiz-adv-x="618" 
d="M485 1485v-1485h-350v1485h350zM137 0h348q-130 -63 -165 -91t-35 -54q0 -38 29.5 -55t72.5 -17q40 0 100 20v-168q-25 -7 -80.5 -13.5t-95.5 -6.5q-57 0 -111.5 12t-101 35t-74.5 62t-28 88q0 109 141 188z" />
    <glyph glyph-name="iogonek" unicode="&#x12f;" horiz-adv-x="581" 
d="M123 0h-2v1102h340v-1102h-2q-93 -45 -136.5 -76t-43.5 -63q0 -74 81 -74q38 0 99 18v-167q-81 -23 -158 -23q-83 0 -153 20t-118 66t-48 111q0 109 141 188zM121 1485h338v-271h-338v271z" />
    <glyph glyph-name="Idotaccent" unicode="&#x130;" horiz-adv-x="618" 
d="M485 1485v-1485h-350v1485h350zM135 1815h350v-232h-350v232z" />
    <glyph glyph-name="dotlessi" unicode="&#x131;" horiz-adv-x="581" 
d="M121 1102h340v-1102h-340v1102z" />
    <glyph glyph-name="Jcircumflex" unicode="&#x134;" horiz-adv-x="1312" 
d="M831 567v918h351v-918q0 -280 -149.5 -437t-430.5 -157q-141 0 -251 44t-180 123.5t-107 187t-41 239.5h350q4 -174 58.5 -244.5t170.5 -70.5q115 0 172 71.5t57 243.5zM1176 1815l280 -232h-336l-110 100l-121 -100h-332l287 232h332z" />
    <glyph glyph-name="jcircumflex" unicode="&#x135;" horiz-adv-x="581" 
d="M121 4v1098h338v-1110q0 -105 -20.5 -173t-67.5 -107.5t-112 -54.5t-165 -15h-125v243h39q70 0 91.5 24t21.5 95zM451 1485l278 -238h-307l-127 94l-129 -94h-311l288 238h308z" />
    <glyph glyph-name="uni0136" unicode="&#x136;" horiz-adv-x="1460" 
d="M485 1485v-588l539 588h428l-549 -592l578 -893h-422l-402 627l-172 -189v-438h-350v1485h350zM631 -279v205h260v-217l-90 -182h-176l80 194h-74z" />
    <glyph glyph-name="uni0137" unicode="&#x137;" horiz-adv-x="1253" 
d="M121 1485h338v-803l370 420h400l-393 -422l426 -680h-396l-260 434l-147 -158v-276h-338v1485zM522 -279v205h260v-217l-90 -182h-176l80 194h-74z" />
    <glyph glyph-name="Lacute" unicode="&#x139;" horiz-adv-x="1196" 
d="M485 1485v-1176h713v-309h-1063v1485h350zM766 1815l-326 -232h-299l211 232h414z" />
    <glyph glyph-name="lacute" unicode="&#x13a;" horiz-adv-x="579" 
d="M459 1485v-1485h-338v1485h338zM764 1815l-326 -232h-299l211 232h414z" />
    <glyph glyph-name="uni013B" unicode="&#x13b;" horiz-adv-x="1196" 
d="M485 1485v-1176h713v-309h-1063v1485h350zM539 -279v205h260v-217l-90 -182h-177l80 194h-73z" />
    <glyph glyph-name="uni013C" unicode="&#x13c;" horiz-adv-x="579" 
d="M459 1485v-1485h-338v1485h338zM162 -279v205h260v-217l-90 -182h-176l80 194h-74z" />
    <glyph glyph-name="Lcaron" unicode="&#x13d;" horiz-adv-x="1196" 
d="M485 1485v-1176h713v-309h-1063v1485h350zM1001 1485l-120 -348h-230l41 348h309z" />
    <glyph glyph-name="lcaron" unicode="&#x13e;" horiz-adv-x="849" 
d="M891 1485l-121 -348h-229l41 348h309zM459 1485v-1485h-338v1485h338z" />
    <glyph glyph-name="Ldot" unicode="&#x13f;" horiz-adv-x="1196" 
d="M485 1485v-1176h713v-309h-1063v1485h350zM733 1012h350v-232h-350v232z" />
    <glyph glyph-name="ldot" unicode="&#x140;" horiz-adv-x="882" 
d="M580 1014h303v-238h-303v238zM459 1485v-1485h-338v1485h338z" />
    <glyph glyph-name="Lslash" unicode="&#x141;" horiz-adv-x="1253" 
d="M543 1485v-438l297 178v-324l-297 -178v-414h712v-309h-1062v512l-234 -139v323l234 140v649h350z" />
    <glyph glyph-name="lslash" unicode="&#x142;" horiz-adv-x="667" 
d="M504 1485v-467l143 76v-275l-143 -76v-743h-338v565l-146 -76v273l146 76v647h338z" />
    <glyph glyph-name="Nacute" unicode="&#x143;" horiz-adv-x="1628" 
d="M1495 0h-426l-596 1024v-1024h-338v1485h426l596 -1024v1024h338v-1485zM1290 1815l-325 -232h-299l211 232h413z" />
    <glyph glyph-name="nacute" unicode="&#x144;" horiz-adv-x="1271" 
d="M459 1102v-146q42 70 131.5 120t210.5 50q204 0 287 -114t83 -350v-662h-337v578q0 41 -1 66.5t-4.5 59t-10 54t-19 43t-30 35t-44.5 20.5t-61 8q-108 0 -156.5 -72t-48.5 -227v-565h-338v1102h338zM1096 1485l-324 -238h-254l195 238h383z" />
    <glyph glyph-name="uni0145" unicode="&#x145;" horiz-adv-x="1628" 
d="M1495 0h-426l-596 1024v-1024h-338v1485h426l596 -1024v1024h338v-1485zM688 -279v205h260v-217l-90 -182h-176l80 194h-74z" />
    <glyph glyph-name="uni0146" unicode="&#x146;" horiz-adv-x="1271" 
d="M459 1102v-146q42 70 131.5 120t210.5 50q204 0 287 -114t83 -350v-662h-337v578q0 41 -1 66.5t-4.5 59t-10 54t-19 43t-30 35t-44.5 20.5t-61 8q-108 0 -156.5 -72t-48.5 -227v-565h-338v1102h338zM518 -279v205h260v-217l-90 -182h-176l80 194h-74z" />
    <glyph glyph-name="Ncaron" unicode="&#x147;" horiz-adv-x="1628" 
d="M1495 0h-426l-596 1024v-1024h-338v1485h426l596 -1024v1024h338v-1485zM670 1583l-281 232h336l111 -103l120 103h332l-287 -232h-331z" />
    <glyph glyph-name="ncaron" unicode="&#x148;" horiz-adv-x="1271" 
d="M459 1102v-146q42 70 131.5 120t210.5 50q204 0 287 -114t83 -350v-662h-337v578q0 41 -1 66.5t-4.5 59t-10 54t-19 43t-30 35t-44.5 20.5t-61 8q-108 0 -156.5 -72t-48.5 -227v-565h-338v1102h338zM489 1247l-280 238h309l125 -94l129 94h311l-288 -238h-306z" />
    <glyph glyph-name="Eng" unicode="&#x14a;" horiz-adv-x="1628" 
d="M1139 0l-666 1024v-1024h-338v1485h426l596 -924v924h338v-1485q0 -78 -8.5 -133.5t-29.5 -96t-50.5 -65t-78.5 -39t-105 -19.5t-138 -5h-143v264h53q74 0 109 15.5t35 62.5v16z" />
    <glyph glyph-name="eng" unicode="&#x14b;" horiz-adv-x="1271" 
d="M834 6v572q0 41 -1 66.5t-4.5 59t-10 54t-19 43t-30 35t-44.5 20.5t-61 8q-108 0 -156.5 -72t-48.5 -227v-565h-338v1102h338v-146q42 70 131.5 120t210.5 50q204 0 287 -114t83 -350v-691q0 -105 -20.5 -170t-68.5 -100t-111 -47t-166 -12h-131v245h45q71 0 93 24t22 95
z" />
    </font>
</defs>
</svg>
