<?xml version="1.0" standalone="no"?>
<!DOCTYPE svg PUBLIC "-//W3C//DTD SVG 1.1//EN" "http://www.w3.org/Graphics/SVG/1.1/DTD/svg11.dtd" >
<svg xmlns="http://www.w3.org/2000/svg" xmlns:xlink="http://www.w3.org/1999/xlink" version="1.1">
<metadata>
Created by FontForge 20201107 at Tue Apr 29 12:09:45 2025
 By 
Copyright (c) 2016 Swiss Typefaces Sarl. All rights reserved. |DCNT
</metadata>
<defs>
<font id="SuisseIntl-Regular" horiz-adv-x="0" >
  <font-face 
    font-family="Suisse Intl"
    font-weight="400"
    font-stretch="normal"
    units-per-em="2048"
    panose-1="2 11 5 4 0 0 0 0 0 0"
    ascent="1536"
    descent="-512"
    x-height="1102"
    cap-height="1485"
    bbox="-432 -1329 5761 2296"
    underline-thickness="143"
    underline-position="-224"
    unicode-range="U+0020-FEFC"
  />
<missing-glyph horiz-adv-x="1024" 
d="M0 0v1485h1024v-1485h-1024zM489 741l-450 684v-1366zM532 741l453 -682v1366zM512 709l-444 -670h886zM68 1446l444 -672l442 672h-886z" />
    <glyph glyph-name="uniFC43" unicode="&#xfedf;&#xfef0;" horiz-adv-x="1771" arabic-form="isolated" 
d="M1423 1485h174v-1094q0 -180 -104 -287q-52 -52 -131 -79q-87 -216 -254 -334q-177 -131 -467 -131q-269 0 -414 141t-145 416q0 118 22 220.5t70 246.5h164q-92 -237 -92 -437q0 -208 107.5 -305.5t326.5 -97.5q205 0 348 90q100 65 156 166h-4h-308l31 184h277
q132 0 187.5 51t55.5 162v1088z" />
    <glyph glyph-name="uniFC86" unicode="&#xfee0;&#xfef0;" horiz-adv-x="1830" arabic-form="final" 
d="M1411 1485h174v-1088q0 -111 56.5 -162t187.5 -51q20 0 20 -20v-141q0 -23 -20 -23q-212 0 -316 104q-15 15 -22 27l-21 -20q-33 -33 -75 -58l-29 -16q-85 -220 -258 -346q-177 -131 -467 -131q-269 0 -414 141t-145 416q0 118 22 220.5t70 246.5h164q-92 -237 -92 -437
q0 -208 107.5 -305.5t326.5 -97.5q205 0 348 90q100 65 156 166h-4h-308l31 184h277q80 0 153 29q56 22 92 53q-14 55 -14 125v1094z" />
    <glyph glyph-name="uniFEF5" unicode="&#xfedf;&#xfe82;" horiz-adv-x="1206" arabic-form="isolated" 
d="M748 1587h174v-485q0 -159 -43 -289q-4 -12 -8.5 -25t-11 -28.5t-9.5 -24.5l102 -92q95 -87 139 -164.5t44 -161.5q0 -65 -22 -121.5t-65.5 -100.5t-116.5 -69.5t-167 -25.5h-643l-80 184q190 113 317 207t209 193q36 41 78 108l-567 516l8 21h217l412 -373
q33 106 33 246v485zM750 563q-83 -114 -218 -221q-103 -81 -239 -158h510q74 0 116 35.5t42 93.5q0 44 -28 94.5t-77 94.5l-92 82q-1 -2 -3.5 -6.5t-5 -8t-5.5 -6.5zM143 1563q46 0 130 -38t130 -38q35 0 83 14.5t81 38.5l-2 -135q-67 -51 -157 -51q-47 0 -123.5 38
t-116.5 38q-88 0 -100 -80h-113q0 92 49.5 152.5t138.5 60.5z" />
    <glyph glyph-name="uniFEF6" unicode="&#xfee0;&#xfe82;" horiz-adv-x="1378" arabic-form="final" 
d="M961 1485h174v-1088q0 -111 56 -162t187 -51q21 0 21 -20v-141q0 -23 -21 -23q-211 0 -315 104l-6 7q-54 -24 -88 -35q-209 -76 -424 -76q-280 0 -494 70v174q101 -30 246 -47q130 -13 227 -13q-2 18 -2 52q-3 54 -12 112q-7 52 -25 131.5t-69.5 297.5t-104.5 452h185
q108 -488 138.5 -631t41.5 -229q9 -50 6 -109q0 -45 -2 -72q43 2 133 15q80 11 170 37q-22 71 -22 151v1094zM297 1569q46 0 130 -38t130 -38q35 0 83 14.5t81 38.5l-2 -135q-67 -51 -158 -51q-47 0 -123 38t-116 38q-89 0 -101 -80h-112q0 92 49.5 152.5t138.5 60.5z" />
    <glyph glyph-name="uniFEF7" unicode="&#xfedf;&#xfe84;" horiz-adv-x="1206" arabic-form="isolated" 
d="M748 1587h174v-485q0 -159 -43 -289q-4 -12 -8.5 -25t-11 -28.5t-9.5 -24.5l102 -92q95 -87 139 -164.5t44 -161.5q0 -65 -22 -121.5t-65.5 -100.5t-116.5 -69.5t-167 -25.5h-643l-80 184q190 113 317 207t209 193q36 41 78 108l-567 516l8 21h217l412 -373
q33 106 33 246v485zM750 563q-83 -114 -218 -221q-103 -81 -239 -158h510q74 0 116 35.5t42 93.5q0 44 -28 94.5t-77 94.5l-92 82q-1 -2 -3.5 -6.5t-5 -8t-5.5 -6.5zM250 1483h223l-37 -123h-332q-75 0 -153 -25v119q61 21 82 23l61 6l-16 20q-31 48 -31 96q0 79 55.5 132
t137.5 53q68 0 155 -41v-119q-78 31 -129 31q-45 0 -73.5 -23.5t-28.5 -64.5q0 -37 26 -60q24 -21 60 -24z" />
    <glyph glyph-name="uniFEF8" unicode="&#xfee0;&#xfe84;" horiz-adv-x="1378" arabic-form="final" 
d="M961 1485h174v-1088q0 -111 56 -162t187 -51q21 0 21 -20v-141q0 -23 -21 -23q-211 0 -315 104l-6 7q-54 -24 -88 -35q-209 -76 -424 -76q-280 0 -494 70v174q101 -30 246 -47q130 -13 227 -13q-2 18 -2 52q-3 54 -12 112q-7 52 -25 131.5t-69.5 297.5t-104.5 452h185
q108 -488 138.5 -631t41.5 -229q9 -50 6 -109q0 -45 -2 -72q43 2 133 15q80 11 170 37q-22 71 -22 151v1094zM416 1483h223l-37 -123h-332q-75 0 -153 -25v119q61 21 80 23l63 6l-18 20q-29 50 -29 96q0 79 55.5 132t137.5 53q68 0 155 -41v-119q-78 31 -129 31
q-45 0 -73.5 -23.5t-28.5 -64.5q0 -37 26 -60q24 -21 60 -24z" />
    <glyph glyph-name="uniFEF9" unicode="&#xfedf;&#xfe88;" horiz-adv-x="1206" arabic-form="isolated" 
d="M748 1587h174v-485q0 -159 -43 -289q-4 -12 -8.5 -25t-11 -28.5t-9.5 -24.5l102 -92q95 -87 139 -164.5t44 -161.5q0 -65 -22 -121.5t-65.5 -100.5t-116.5 -69.5t-167 -25.5h-643l-80 184q190 113 317 207t209 193q36 41 78 108l-567 516l8 21h217l412 -373
q33 106 33 246v485zM750 563q-83 -114 -218 -221q-103 -81 -239 -158h510q74 0 116 35.5t42 93.5q0 44 -28 94.5t-77 94.5l-92 82q-1 -2 -3.5 -6.5t-5 -8t-5.5 -6.5zM647 -401h225l-36 -123h-332q-76 0 -154 -25v119q53 18 82 24q40 5 62 5l-19 22q-31 45 -31 94
q0 79 55.5 131t137.5 52q73 0 156 -39v-119q-85 31 -129 31t-73.5 -25t-29.5 -63q0 -34 29 -60q24 -21 57 -24z" />
    <glyph glyph-name="uniFEFA" unicode="&#xfee0;&#xfe88;" horiz-adv-x="1378" arabic-form="final" 
d="M961 1485h174v-1088q0 -111 56 -162t187 -51q21 0 21 -20v-141q0 -23 -21 -23q-211 0 -315 104l-6 7q-54 -24 -88 -35q-209 -76 -424 -76q-280 0 -494 70v174q101 -30 246 -47q130 -13 227 -13q-2 18 -2 52q-3 54 -12 112q-7 52 -25 131.5t-69.5 297.5t-104.5 452h185
q108 -488 138.5 -631t41.5 -229q9 -50 6 -109q0 -45 -2 -72q43 2 133 15q80 11 170 37q-22 71 -22 151v1094zM637 -403h215l-37 -123h-332q-75 0 -153 -25v119q52 18 80 24q45 5 61 5l-18 22q-29 47 -29 94q0 79 55 131t137 52q73 0 156 -39v-119q-85 31 -129 31t-73 -25
t-29 -63q0 -35 27.5 -59.5t68.5 -24.5z" />
    <glyph glyph-name="uniFEFB" unicode="&#xfedf;&#xfe8e;" horiz-adv-x="1206" arabic-form="isolated" 
d="M748 1587h174v-485q0 -159 -43 -289q-4 -12 -8.5 -25t-11 -28.5t-9.5 -24.5l102 -92q95 -87 139 -164.5t44 -161.5q0 -65 -22 -121.5t-65.5 -100.5t-116.5 -69.5t-167 -25.5h-643l-80 184q190 113 317 207t209 193q36 41 78 108l-567 516l8 21h217l412 -373
q33 106 33 246v485zM750 563q-83 -114 -218 -221q-103 -81 -239 -158h510q74 0 116 35.5t42 93.5q0 44 -28 94.5t-77 94.5l-92 82q-1 -2 -3.5 -6.5t-5 -8t-5.5 -6.5z" />
    <glyph glyph-name="uniFEFC" unicode="&#xfee0;&#xfe8e;" horiz-adv-x="1378" arabic-form="final" 
d="M961 1485h174v-1088q0 -111 56 -162t187 -51q21 0 21 -20v-141q0 -23 -21 -23q-211 0 -315 104l-6 7q-54 -24 -88 -35q-209 -76 -424 -76q-280 0 -494 70v174q101 -30 246 -47q130 -13 227 -13q-2 18 -2 52q-3 54 -12 112q-7 52 -25 131.5t-69.5 297.5t-104.5 452h185
q108 -488 138.5 -631t41.5 -229q9 -50 6 -109q0 -45 -2 -72q43 2 133 15q80 11 170 37q-22 71 -22 151v1094z" />
    <glyph glyph-name="uni0407_uni0407" unicode="&#x407;&#x407;" horiz-adv-x="1026" 
d="M406 1485v-1485h-209v1485h209zM829 1485v-1485h-208v1485h208zM821 1802h187v-203h-187v203zM420 1802h186v-203h-186v203zM20 1802h187v-203h-187v203z" />
    <glyph glyph-name="uni0457_uni0457" unicode="&#x457;&#x457;" horiz-adv-x="913" 
d="M569 1102h187v-1102h-187v1102zM158 1102h186v-1102h-186v1102zM-43 1485h186v-203h-186v203zM362 1485h187v-203h-187v203zM772 1485h186v-203h-186v203z" />
    <glyph glyph-name="uniFEDF_uniFB51" unicode="&#xfedf;&#xfb51;" horiz-adv-x="1206" 
d="M748 1587h174v-485q0 -159 -43 -289q-4 -12 -8.5 -25t-11 -28.5t-9.5 -24.5l102 -92q95 -87 139 -164.5t44 -161.5q0 -65 -22 -121.5t-65.5 -100.5t-116.5 -69.5t-167 -25.5h-643l-80 184q190 113 317 207t209 193q36 41 78 108l-567 516l8 21h217l412 -373
q33 106 33 246v485zM750 563q-83 -114 -218 -221q-103 -81 -239 -158h510q74 0 116 35.5t42 93.5q0 44 -28 94.5t-77 94.5l-92 82q-1 -2 -3.5 -6.5t-5 -8t-5.5 -6.5zM387 1702q79 0 132.5 -51.5t53.5 -128.5q0 -99 -80.5 -152t-232.5 -53q-140 0 -295 61l37 111
q40 -15 78 -27q89 116 158 176q73 64 149 64zM256 1440q85 0 131.5 21.5t46.5 60.5q0 26 -19.5 42.5t-49.5 16.5q-34 0 -69.5 -22t-88.5 -78l-33 -37q62 -4 82 -4z" />
    <glyph glyph-name="uniFEE0_uniFB51" unicode="&#xfee0;&#xfb51;" horiz-adv-x="1378" 
d="M961 1485h174v-1088q0 -111 56 -162t187 -51q21 0 21 -20v-141q0 -23 -21 -23q-211 0 -315 104l-6 7q-54 -24 -88 -35q-209 -76 -424 -76q-280 0 -494 70v174q101 -30 246 -47q130 -13 227 -13q-2 18 -2 52q-3 54 -12 112q-7 52 -25 131.5t-69.5 297.5t-104.5 452h185
q108 -488 138.5 -631t41.5 -229q9 -50 6 -109q0 -45 -2 -72q43 2 133 15q80 11 170 37q-22 71 -22 151v1094zM496 1708q79 0 132.5 -51.5t53.5 -128.5q0 -99 -80.5 -152t-232.5 -53q-140 0 -295 61l37 111q56 -21 77 -27q91 119 158 177q72 63 150 63zM365 1446
q85 0 131.5 21.5t46.5 60.5q0 26 -20 42.5t-50 16.5q-34 0 -69.5 -22t-88.5 -78q-19 -20 -32 -37q58 -4 82 -4z" />
    <glyph glyph-name="uni066E.init" unicode="&#x66e;" horiz-adv-x="530" 
d="M182 993h174q62 -434 62 -602q0 -184 -106 -287.5t-312 -103.5q-20 0 -20 23v141q0 20 20 20q133 0 191.5 51.5t58.5 161.5q0 86 -14 205.5t-54 390.5z" />
    <glyph glyph-name="uni066E.medi" unicode="&#x66e;" horiz-adv-x="614" 
d="M260 758h160q0 -210 -21 -348q-15 -87 -39 -158l21 -12q104 -56 233 -56q21 0 21 -20v-141q0 -23 -21 -23q-113 0 -206 41q-65 30 -121 78q-41 -48 -88 -72q-83 -47 -199 -47q-20 0 -20 23v141q0 20 20 20q152 0 207 111q28 61 40.5 166t12.5 297z" />
    <glyph glyph-name="uni066E.fina" unicode="&#x66e;" horiz-adv-x="1714" 
d="M1360 758h160q0 -210 -21 -348q-15 -87 -39 -158l21 -12q104 -56 233 -56q21 0 21 -20v-141q0 -23 -21 -23q-114 0 -207 41q-65 30 -121 78q-41 -48 -88 -72q-65 -38 -161 -47h-9h-528q-248 0 -383 121t-135 348q0 164 61 432h164q-51 -251 -51 -389q0 -173 87.5 -250.5
t295.5 -77.5h461q152 0 207 111q28 61 40.5 166t12.5 297z" />
    <glyph glyph-name="uni066F.fina" unicode="&#x66f;" horiz-adv-x="1556" 
d="M1012 973q177 0 285 -117t120 -324q1 -15 4 -86t4 -118l7 -144h124q21 0 21 -20v-141q0 -23 -21 -23h-126q-8 -65 -41 -135q-69 -145 -239 -225t-427 -80q-304 0 -472.5 138t-168.5 419q0 118 22 220.5t70 246.5h164q-92 -237 -92 -437q0 -206 129 -305.5t405 -99.5
q171 0 288.5 54t166.5 145q9 17 22 59h-163q-249 0 -391 124.5t-142 350.5q0 216 126 357t325 141zM1249 410l-6 102q-10 134 -73 205t-169 71q-117 0 -191.5 -87t-74.5 -218q0 -147 95 -223t276 -76h158l-7 111q-4 78 -8 115z" />
    <glyph glyph-name="uni06A1.init" unicode="&#x6a1;" horiz-adv-x="1067" 
d="M537 993q187 0 312.5 -133t125.5 -330q0 -246 -146.5 -388t-398.5 -142h-430q-20 3 -20 23v141q0 20 20 20h227q-21 43 -55 95q-50 78 -71 144.5t-21 141.5q0 178 132.5 303t324.5 125zM399 184h50q161 0 255.5 84.5t94.5 239.5q0 133 -77 216t-202 83q-116 0 -191 -76
t-75 -188q0 -91 74 -219q37 -63 51 -97z" />
    <glyph glyph-name="uni06A1.medi" unicode="&#x6a1;" horiz-adv-x="1114" 
d="M557 993q191 0 317.5 -127.5t126.5 -322.5q0 -138 -90 -254q-34 -45 -94 -94l70 -5q114 -6 227 -6q21 0 21 -20v-141q0 -23 -21 -23q-155 0 -350 29q-101 14 -199 43q-105 -33 -209 -47q-186 -25 -356 -25q-20 3 -20 23v141q0 20 20 20q114 0 219 6l68 5q-46 37 -88 86
q-88 113 -88 260q0 192 129 322t317 130zM754 332q71 86 71 196q0 123 -76.5 202t-197.5 79q-115 0 -190.5 -77t-75.5 -204q0 -109 67 -194q69 -85 189 -125q142 40 213 123z" />
    <glyph glyph-name="uni06A1.fina" unicode="&#x6a1;" horiz-adv-x="1974" 
d="M1417 993q191 0 318 -128t127 -322q0 -138 -90 -254q-33 -42 -95 -94l70 -5q114 -6 227 -6q21 0 21 -20v-141q0 -23 -21 -23q-155 0 -350 29q-101 14 -199 43q-106 -34 -208 -47q-186 -25 -357 -25q-20 3 -20 23v141q0 20 20 20q114 0 219 6l68 5q-46 37 -88 86
q-88 113 -88 260q0 192 129 322t317 130zM1614 332q72 87 72 196q0 123 -77 202t-198 79q-115 0 -190.5 -77t-75.5 -204q0 -109 67 -194q69 -85 189 -125q142 40 213 123zM125 795h164q-33 -176 -33 -283q0 -173 87.5 -250.5t295.5 -77.5h242q20 0 20 -20v-141
q0 -23 -20 -23h-281q-247 0 -382.5 120.5t-135.5 346.5q0 149 43 328z" />
    <glyph glyph-name="uni06AA.init" unicode="&#x6aa;" horiz-adv-x="1640" 
d="M561 1485h232l-547 -604h803q227 0 363 -120.5t136 -326.5q0 -192 -125.5 -313t-326.5 -121h-1096q-20 0 -20 23v141q0 20 20 20h1071q142 0 222.5 65t80.5 181q0 129 -81.5 197.5t-233.5 68.5h-909l-103 185z" />
    <glyph glyph-name="uni06AA.medi" unicode="&#x6aa;" horiz-adv-x="1742" 
d="M561 1485h232l-547 -604h803q227 0 363 -120.5t136 -326.5q0 -192 -125.5 -313t-326.5 -121h-1096q-20 0 -20 23v141q0 20 20 20h1071q142 0 222.5 65t80.5 181q0 129 -81.5 197.5t-233.5 68.5h-909l-103 185zM1343 190l91 103q83 -63 149 -86t160 -23q20 0 20 -20v-141
q0 -23 -20 -23q-117 0 -209.5 43t-190.5 147z" />
    <glyph glyph-name="uni06AA.fina" unicode="&#x6aa;" horiz-adv-x="1943" 
d="M768 1485h231l-546 -604h802q227 0 363.5 -120.5t136.5 -326.5q0 -192 -125.5 -313t-326.5 -121h-818q-133 0 -229 33.5t-211 118.5l90 149q97 -65 175.5 -91t174.5 -26h793q142 0 222.5 65t80.5 181q0 129 -81.5 197.5t-233.5 68.5h-910l-102 185zM1544 190l90 103
q83 -63 149.5 -86t160.5 -23q20 0 20 -20v-141q0 -23 -20 -23q-117 0 -209.5 43t-190.5 147z" />
    <glyph glyph-name="uni06C2.fina" unicode="&#x6c2;" horiz-adv-x="1097" 
d="M741 1102h174v-731q0 -96 41 -141.5t142 -45.5q20 0 20 -20v-141q0 -23 -20 -23q-180 0 -269 102q-69 -39 -153 -71q-88 -31 -180 -31q-184 0 -299 108.5t-115 284.5q0 67 18.5 132t59 131.5t113.5 127t173 107.5q122 56 295 80v131zM580 766q-153 -50 -238.5 -142.5
t-85.5 -215.5q0 -104 65.5 -164t178.5 -60q68 0 151 17q50 11 109 37q-19 68 -19 149v418q-83 -15 -161 -39zM850 1354h223l-37 -123h-331q-76 0 -154 -25v119q61 21 82 23l61 6l-16 20q-31 48 -31 96q0 79 55.5 132t137.5 53q68 0 155 -41v-119q-78 31 -129 31
q-45 0 -73.5 -23.5t-28.5 -64.5q0 -36 27 -60q24 -21 59 -24z" />
    <glyph glyph-name="uni06C3.fina" unicode="&#x6c3;" horiz-adv-x="1269" 
d="M608 881q136 0 225 -89t187 -309q59 -141 92 -192q69 -107 158 -107q20 0 20 -20v-141q0 -23 -20 -23q-132 0 -223.5 87.5t-172.5 295.5q-65 175 -120 244t-146 69q-90 0 -158.5 -76t-154.5 -272l-76 -172l-147 70l75 172q111 251 215.5 357t245.5 106zM295 1221l154 155
l155 -151l154 151l155 -155l-155 -154l-154 150l-153 -150z" />
    <glyph glyph-name="uniFB51" unicode="&#x671;" horiz-adv-x="591" arabic-form="final" 
d="M174 1229h174v-832q0 -111 56.5 -162t187.5 -51q20 0 20 -20v-141q0 -23 -20 -23q-206 0 -312 103.5t-106 287.5v838zM369 1665q79 0 132.5 -51.5t53.5 -128.5q0 -99 -80.5 -152t-232.5 -53q-140 0 -295 61l37 111q47 -17 77 -27q91 119 158 177q72 63 150 63zM238 1403
q85 0 131.5 21.5t46.5 60.5q0 26 -20 42.5t-50 16.5q-34 0 -69.5 -22t-88.5 -78l-32 -37q62 -4 82 -4z" />
    <glyph glyph-name="uniFB57" unicode="&#x67e;" horiz-adv-x="1714" arabic-form="final" 
d="M1360 758h160q0 -210 -21 -348q-15 -87 -39 -158l21 -12q104 -56 233 -56q21 0 21 -20v-141q0 -23 -21 -23q-114 0 -207 41q-65 30 -121 78q-41 -48 -88 -72q-65 -37 -163 -47h-7h-28h-6h-494q-248 0 -383 121t-135 348q0 164 61 432h164q-51 -251 -51 -389
q0 -173 87.5 -250.5t295.5 -77.5h455h6q152 0 207 111q28 61 40.5 166t12.5 297zM895 -309l158 153l155 -153l-155 -158zM561 -309l154 153l157 -153l-155 -158zM764 -561l123 125l125 -125l-123 -123z" />
    <glyph glyph-name="uniFB58" unicode="&#x67e;" horiz-adv-x="681" arabic-form="initial" 
d="M342 993h174q62 -434 62 -602q0 -184 -106 -287.5t-312 -103.5h-160q-20 0 -20 23v141q0 20 20 20h160q132 0 190 51.5t58 161.5q0 146 -66 596zM274 -303l158 153l156 -153l-156 -158zM143 -555l123 125l125 -125l-123 -123zM-59 -303l153 153l158 -153l-156 -158z" />
    <glyph glyph-name="uniFB59" unicode="&#x67e;" horiz-adv-x="757" arabic-form="medial" 
d="M319 758h162q0 -197 -16 -338q-7 -59 -25 -127q71 -52 142 -78q85 -31 176 -31q20 0 20 -20v-141q0 -23 -20 -23q-199 0 -379 160q-51 -69 -129 -109q-99 -51 -250 -51q-20 0 -20 23v141q0 20 20 20q201 0 264 109q35 58 45 156t10 309zM344 -307l158 153l155 -153
l-155 -158zM213 -559l123 125l125 -125l-123 -123zM10 -307l154 153l158 -153l-156 -158z" />
    <glyph glyph-name="uniFB67" unicode="&#x679;" horiz-adv-x="1714" arabic-form="final" 
d="M1360 758h160q0 -210 -21 -348q-15 -87 -39 -158l21 -12q104 -56 233 -56q21 0 21 -20v-141q0 -23 -21 -23q-114 0 -207 41q-65 30 -121 78q-41 -48 -88 -72q-65 -38 -161 -47h-9h-28h-6h-494q-248 0 -383 121t-135 348q0 164 61 432h164q-51 -251 -51 -389
q0 -173 87.5 -250.5t295.5 -77.5h455h6h14q141 3 193 111q28 61 40.5 166t12.5 297zM707 1372h112v-196l-6 -27q145 158 256 158q87 0 144 -54t57 -133q0 -102 -98 -160.5t-269 -58.5h-258l-67 119h129v352zM805 1020h94q234 0 234 100q0 30 -25 50t-66 20t-83.5 -29.5
t-114.5 -101.5z" />
    <glyph glyph-name="uniFB68" unicode="&#x679;" horiz-adv-x="778" arabic-form="initial" 
d="M342 993h174q62 -434 62 -602q0 -184 -106 -287.5t-312 -103.5h-160q-20 0 -20 23v141q0 20 20 20h160q132 0 190 51.5t58 161.5q0 146 -66 596zM164 1573h112v-197l-4 -26q144 157 254 157q87 0 144 -53.5t57 -132.5q0 -102 -98 -160.5t-269 -58.5h-258l-67 119h129v352
zM264 1221h92q234 0 234 100q0 30 -25 50t-65 20q-41 0 -85.5 -30.5t-111.5 -100.5z" />
    <glyph glyph-name="uniFB69" unicode="&#x679;" horiz-adv-x="757" arabic-form="medial" 
d="M319 758h162q0 -197 -16 -338q-7 -59 -25 -127q71 -52 142 -78q85 -31 176 -31q20 0 20 -20v-141q0 -23 -20 -23q-199 0 -379 160q-51 -69 -129 -109q-99 -51 -250 -51q-20 0 -20 23v141q0 20 20 20q201 0 264 109q35 58 45 156t10 309zM164 1374h112v-196l-4 -27
q145 158 254 158q87 0 144 -54t57 -133q0 -102 -98 -160.5t-269 -58.5h-258l-67 119h129v352zM264 1022h92q234 0 234 100q0 30 -25 50t-65 20q-41 0 -85.5 -30.5t-111.5 -100.5z" />
    <glyph glyph-name="uniFB6B" unicode="&#x6a4;" horiz-adv-x="1974" arabic-form="final" 
d="M1417 993q191 0 318 -128t127 -322q0 -138 -90 -254q-33 -42 -95 -94l70 -5q114 -6 227 -6q21 0 21 -20v-141q0 -23 -21 -23q-155 0 -350 29q-101 14 -199 43q-106 -34 -208 -47q-186 -25 -357 -25q-20 3 -20 23v141q0 20 20 20q114 0 219 6l68 5q-46 37 -88 86
q-88 113 -88 260q0 192 129 322t317 130zM1614 332q72 87 72 196q0 123 -77 202t-198 79q-115 0 -190.5 -77t-75.5 -204q0 -109 67 -194q69 -85 189 -125q142 40 213 123zM125 795h164q-33 -176 -33 -283q0 -173 87.5 -250.5t295.5 -77.5h242q20 0 20 -20v-141
q0 -23 -20 -23h-281q-247 0 -382.5 120.5t-135.5 346.5q0 149 43 328zM1430 1300l157 158l156 -158l-156 -153zM1096 1300l153 158l158 -158l-156 -153zM1296 1548l123 125l125 -125l-123 -123z" />
    <glyph glyph-name="uniFB6C" unicode="&#x6a4;" horiz-adv-x="1067" arabic-form="initial" 
d="M537 993q187 0 312.5 -133t125.5 -330q0 -246 -146.5 -388t-398.5 -142h-430q-20 3 -20 23v141q0 20 20 20h227q-21 43 -55 95q-50 78 -71 144.5t-21 141.5q0 178 132.5 303t324.5 125zM399 184h50q161 0 255.5 84.5t94.5 239.5q0 133 -77 216t-202 83q-116 0 -191 -76
t-75 -188q0 -91 74 -219q37 -63 51 -97zM563 1300l158 158l156 -158l-156 -153zM229 1300l154 158l158 -158l-156 -153zM430 1548l123 125l125 -125l-123 -123z" />
    <glyph glyph-name="uniFB6D" unicode="&#x6a4;" horiz-adv-x="1114" arabic-form="medial" 
d="M557 993q191 0 317.5 -127.5t126.5 -322.5q0 -138 -90 -254q-34 -45 -94 -94l70 -5q114 -6 227 -6q21 0 21 -20v-141q0 -23 -21 -23q-155 0 -350 29q-101 14 -199 43q-105 -33 -209 -47q-186 -25 -356 -25q-20 3 -20 23v141q0 20 20 20q114 0 219 6l68 5q-46 37 -88 86
q-88 113 -88 260q0 192 129 322t317 130zM754 332q71 86 71 196q0 123 -76.5 202t-197.5 79q-115 0 -190.5 -77t-75.5 -204q0 -109 67 -194q69 -85 189 -125q142 40 213 123zM573 1300l158 158l156 -158l-156 -153zM240 1300l153 158l158 -158l-156 -153zM440 1548l123 125
l125 -125l-123 -123z" />
    <glyph glyph-name="uniFB7B" unicode="&#x686;" horiz-adv-x="1333" arabic-form="final" 
d="M410 1102q77 0 153.5 -34.5t149.5 -90.5t148.5 -117t179.5 -126t212 -105l-47 -174q-45 0 -123 -4v-107q0 -160 250 -160q21 0 21 -20v-141q0 -23 -21 -23q-183 0 -281 79t-98 236v119q-63 -11 -96 -20q-167 -39 -299.5 -109t-212.5 -169.5t-80 -209.5q0 -87 36.5 -159.5
t123.5 -153.5l-160 -68q-84 72 -129 166t-45 199q0 204 150 362t420 242q133 44 311 66q-74 41 -125 79q-27 21 -80.5 64t-79.5 63.5t-70 51t-74 44.5t-69 25t-76 11q-103 0 -245 -50v164q48 30 119.5 50t136.5 20zM831 -227l158 153l156 -153l-156 -158zM498 -227l153 153
l158 -153l-156 -158zM700 -479l123 125l125 -125l-123 -123z" />
    <glyph glyph-name="uniFB7C" unicode="&#x686;" horiz-adv-x="1247" arabic-form="initial" 
d="M387 973q77 0 150 -29.5t141 -79.5t138 -104t171 -114.5t209 -100.5l-47 -174q-98 -19 -183 -50.5t-145 -65t-120 -70.5t-124.5 -69.5t-141.5 -58.5t-187 -41.5t-246 -15.5q-22 0 -22 23v141q0 20 22 20q130 0 238 14.5t196.5 43.5t147.5 55t144 69t134 64q56 25 96 39
q-90 47 -155 92q-23 17 -76 57.5t-74.5 56.5t-64.5 43.5t-70.5 38.5t-65.5 21t-75 10q-107 0 -246 -49v164q48 30 119.5 50t136.5 20zM594 -313l158 153l155 -153l-155 -158zM463 -565l123 125l125 -125l-123 -123zM260 -313l154 153l157 -153l-155 -158z" />
    <glyph glyph-name="uniFB7D" unicode="&#x686;" horiz-adv-x="1292" arabic-form="medial" 
d="M387 973q77 0 150 -29.5t141 -79.5t138 -104t171 -114.5t209 -100.5l-47 -174q-28 -5 -94 -23q0 -79 54.5 -121.5t182.5 -42.5q21 0 21 -20v-141q0 -23 -21 -23q-190 0 -278 88q-80 83 -86 217q-101 -44 -150 -72q-23 -13 -79 -47t-83.5 -49t-82.5 -41.5t-101.5 -39.5
t-113.5 -28.5t-145.5 -21.5t-170.5 -6q-22 0 -22 23v141q0 20 22 20q130 0 238 14.5t196.5 43.5t147.5 55t144 69t134 64q56 25 96 39q-90 47 -155 92q-23 17 -76 57.5t-74.5 56.5t-64.5 43.5t-70.5 38.5t-65.5 21t-75 10q-107 0 -246 -49v164q48 30 119.5 50t136.5 20z
M594 -313l158 153l155 -153l-155 -158zM260 -313l154 153l157 -153l-155 -158zM463 -565l123 125l125 -125l-123 -123z" />
    <glyph glyph-name="uniFB89" unicode="&#x688;" horiz-adv-x="1060" arabic-form="final" 
d="M31 70v174q123 -35 202 -47.5t168 -12.5q171 0 310 43q-37 72 -54 129q-86 273 -151 637h184q63 -409 131 -612q35 -104 91.5 -150.5t148.5 -46.5q20 0 20 -20v-141q0 -23 -20 -23q-158 0 -264 106q-76 -47 -179 -77q-110 -29 -217 -29q-103 0 -173 13.5t-197 56.5z
M322 1573h112v-197l-4 -26q144 157 254 157q87 0 144 -53.5t57 -132.5q0 -102 -98 -160.5t-269 -58.5h-258l-67 119h129v352zM422 1221h92q234 0 234 100q0 30 -25 50t-66 20t-84.5 -30t-111.5 -101z" />
    <glyph glyph-name="uniFB8B" unicode="&#x698;" horiz-adv-x="698" arabic-form="final" 
d="M246 901h174q35 -263 45 -416l6 -75l8 -52q6 -56 25 -92.5t51.5 -53.5t64 -22.5t76.5 -5.5q21 0 21 -20v-141q0 -23 -21 -23q-127 0 -196 72l-13 16v-35q0 -237 -140.5 -365t-377.5 -128v168q159 0 256 85.5t97 247.5q0 300 -76 840zM324 1214l157 158l156 -158
l-156 -153zM-10 1214l153 158l158 -158l-156 -153zM190 1462l123 125l125 -125l-123 -123z" />
    <glyph glyph-name="uniFB8D" unicode="&#x691;" horiz-adv-x="698" arabic-form="final" 
d="M246 901h174q35 -263 45 -416l6 -75l8 -52q6 -56 25 -92.5t51.5 -53.5t64 -22.5t76.5 -5.5q21 0 21 -20v-141q0 -23 -21 -23q-127 0 -196 72l-13 16v-35q0 -237 -140.5 -365t-377.5 -128v168q159 0 256 85.5t97 247.5q0 300 -76 840zM98 1485h113v-197l-6 -26
q144 157 256 157q87 0 144 -53.5t57 -132.5q0 -102 -98 -160.5t-269 -58.5h-258l-68 119h129v352zM197 1133h94q233 0 233 100q0 30 -25 50t-65 20t-82.5 -29.5t-115.5 -102.5z" />
    <glyph glyph-name="uniFB8F" unicode="&#x6a9;" horiz-adv-x="2021" arabic-form="final" 
d="M145 901h164q-51 -251 -51 -389q0 -173 87.5 -250.5t295.5 -77.5h489q21 0 21 -20v-141q0 -23 -21 -23h-528q-248 0 -383 121t-135 348q0 164 61 432zM1499 1628h262v-8l-757 -598l356 -156q418 -181 418 -456q0 -185 -146 -297.5t-393 -112.5h-580q-20 0 -20 23v141
q0 20 20 20h596q151 0 250 61.5t99 155.5q0 85 -75.5 155t-254.5 149l-492 217v139zM1622 190l90 103q83 -63 149 -86t160 -23q21 0 21 -20v-141q0 -23 -21 -23q-117 0 -209 43t-190 147z" />
    <glyph glyph-name="uniFB90" unicode="&#x6a9;" horiz-adv-x="1189" arabic-form="initial" 
d="M840 1628h262v-8l-758 -598l356 -156q418 -181 418 -456q0 -185 -145.5 -297.5t-392.5 -112.5h-580q-20 0 -20 23v141q0 20 20 20h596q151 0 249.5 61.5t98.5 155.5q0 85 -75.5 155t-254.5 149l-491 217v139z" />
    <glyph glyph-name="uniFB91" unicode="&#x6a9;" horiz-adv-x="1329" arabic-form="medial" 
d="M840 1628h262v-8l-758 -598l356 -156q418 -181 418 -456q0 -185 -145.5 -297.5t-392.5 -112.5h-580q-20 0 -20 23v141q0 20 20 20h596q151 0 249.5 61.5t98.5 155.5q0 85 -75.5 155t-254.5 149l-491 217v139zM930 190l90 103q83 -63 149 -86t160 -23q21 0 21 -20v-141
q0 -23 -21 -23q-117 0 -209 43t-190 147z" />
    <glyph glyph-name="uniFB93" unicode="&#x6af;" horiz-adv-x="2021" arabic-form="final" 
d="M145 901h164q-51 -251 -51 -389q0 -173 87.5 -250.5t295.5 -77.5h489q21 0 21 -20v-141q0 -23 -21 -23h-528q-248 0 -383 121t-135 348q0 164 61 432zM1499 1628h262v-8l-757 -598l356 -156q418 -181 418 -456q0 -185 -146 -297.5t-393 -112.5h-580q-20 0 -20 23v141
q0 20 20 20h596q151 0 250 61.5t99 155.5q0 85 -75.5 155t-254.5 149l-492 217v139zM1622 190l90 103q83 -63 149 -86t160 -23q21 0 21 -20v-141q0 -23 -21 -23q-117 0 -209 43t-190 147zM1163 1628v-8l-534 -428l-76 90l426 346h184z" />
    <glyph glyph-name="uniFB94" unicode="&#x6af;" horiz-adv-x="1466" arabic-form="initial" 
d="M1116 1628h262v-8l-757 -598l356 -156q418 -181 418 -456q0 -185 -146 -297.5t-393 -112.5h-580q-20 0 -20 23v141q0 20 20 20h596q151 0 250 61.5t99 155.5q0 85 -75.5 155t-254.5 149l-492 217v139zM717 1628v-8l-535 -428l-76 90l426 346h185zM0 184h397q21 0 21 -20
v-141q0 -23 -21 -23h-397q-20 0 -20 23v141q0 20 20 20z" />
    <glyph glyph-name="uniFB95" unicode="&#x6af;" horiz-adv-x="1605" arabic-form="medial" 
d="M1116 1628h262v-8l-757 -598l356 -156q418 -181 418 -456q0 -185 -146 -297.5t-393 -112.5h-580q-20 0 -20 23v141q0 20 20 20h596q151 0 250 61.5t99 155.5q0 85 -75.5 155t-254.5 149l-492 217v139zM1206 190l90 103q83 -63 149.5 -86t160.5 -23q20 0 20 -20v-141
q0 -23 -20 -23q-117 0 -209.5 43t-190.5 147zM717 1628v-8l-535 -428l-76 90l426 346h185zM0 184h397q21 0 21 -20v-141q0 -23 -21 -23h-397q-20 0 -20 23v141q0 20 20 20z" />
    <glyph glyph-name="uniFB9F" unicode="&#x6ba;" horiz-adv-x="1386" arabic-form="final" 
d="M926 901h174q30 -205 51 -375q6 -53 14 -155l2 -13q6 -56 25 -92.5t51.5 -53.5t64 -22.5t76.5 -5.5q21 0 21 -20v-141q0 -23 -21 -23q-127 0 -196 72q-2 2 -10.5 12t-12.5 16q-10 -93 -28 -153q-54 -183 -191.5 -285t-355.5 -102q-242 0 -375 144.5t-133 412.5
q0 118 22 220.5t70 246.5h164q-92 -237 -92 -437q0 -193 88 -298t272 -105q207 0 303.5 110.5t96.5 348.5q0 158 -70 627q-6 47 -10 71z" />
    <glyph glyph-name="uniFBA7" unicode="&#x6c1;" horiz-adv-x="1269" arabic-form="final" 
d="M608 881q136 0 225 -89t187 -309q59 -141 92 -192q69 -107 158 -107q20 0 20 -20v-141q0 -23 -20 -23q-132 0 -223.5 87.5t-172.5 295.5q-65 175 -120 244t-146 69q-90 0 -158.5 -76t-154.5 -272l-76 -172l-147 70l75 172q111 251 215.5 357t245.5 106z" />
    <glyph glyph-name="uniFBA8" unicode="&#x6c1;" horiz-adv-x="561" arabic-form="initial" 
d="M180 -127h142l-103 -221h113l-37 -215h-225v211zM182 993h174q62 -434 62 -602q0 -184 -106 -287.5t-312 -103.5q-20 0 -20 23v141q0 20 20 20q133 0 191.5 51.5t58.5 161.5q0 86 -14 205.5t-54 390.5z" />
    <glyph glyph-name="uniFBA9" unicode="&#x6c1;" horiz-adv-x="1484" arabic-form="medial" 
d="M264 758h174v-711q0 -222 113 -323q107 -94 321 -103v133q0 207 99 318.5t282 111.5h232q20 0 20 -22v-142q0 -20 -20 -20h-232q-217 0 -217 -266v-129l-143 -168q-324 0 -476.5 150.5t-152.5 471.5v25q-11 -11 -35 -27q-80 -57 -229 -57q-20 0 -20 23v141q0 20 20 20
q47 0 89.5 7.5t84 25t66 52t24.5 83.5v406zM1262 -127h141l-103 -221h113l-37 -215h-225v211z" />
    <glyph glyph-name="uniFBAB" unicode="&#x6be;" horiz-adv-x="1263" arabic-form="final" 
d="M688 1147h137q138 -126 223 -280t85 -292q0 -177 -125 -305q-29 -29 -45 -41q51 -20 104 -28q104 -17 197 -17q20 0 20 -22v-142q0 -20 -20 -20q-53 0 -115 10q-43 10 -82 23q78 -104 78 -197q0 -125 -93.5 -200.5t-248.5 -75.5q-246 0 -395 182q-60 72 -97 166
q-111 -73 -180 -133l-100 129q56 54 123 104q32 25 112 76q-8 63 -8 145q0 254 110.5 491t319.5 427zM440 174q40 20 187 78q169 61 250 137.5t81 179.5q0 183 -153 357q-33 38 -64 65q-52 -49 -104 -117q-94 -123 -150.5 -285t-56.5 -331q0 -59 2 -86q6 0 8 2zM678 78
q-122 -41 -205 -82q26 -72 72 -127q104 -127 262 -127q81 0 129.5 32t48.5 91q0 67 -41 135q-39 61 -117 139q-69 -34 -149 -61z" />
    <glyph glyph-name="uniFBAC" unicode="&#x6be;" horiz-adv-x="1540" arabic-form="initial" 
d="M487 1188l2 184q225 0 407 -55.5t302.5 -155.5t185 -238.5t64.5 -304.5q0 -190 -111 -483l-174 -162q-168 0 -334 35q-118 27 -247 70q-108 -38 -230 -53q-183 -25 -352 -25q-20 3 -20 23v141q0 20 20 20q114 0 213 6l70 7q-47 37 -84 84q-88 113 -88 260
q0 192 126.5 322t313.5 130q192 0 316 -127.5t124 -322.5q0 -138 -90 -254q-41 -53 -96 -99q8 0 10 -2q211 -30 352 -30q47 103 76 224.5t29 219.5q0 91 -28.5 174.5t-90.5 159t-152 131.5t-222 88.5t-292 32.5zM745 332q70 85 70 196q0 124 -74.5 202.5t-195.5 78.5
q-112 0 -186 -77t-74 -204q0 -109 67 -194q66 -85 183 -125q139 40 210 123z" />
    <glyph glyph-name="uniFBAD" unicode="&#x6be;" horiz-adv-x="1132" arabic-form="medial" 
d="M557 1147h137q140 -123 223.5 -273.5t83.5 -298.5q0 -147 -75 -253q-33 -50 -86 -97q50 -16 96 -24q104 -17 197 -17q20 0 20 -22v-142q0 -20 -20 -20q-53 0 -115 10q-42 10 -82 23q78 -104 78 -197q0 -125 -93.5 -200.5t-248.5 -75.5q-177 0 -309.5 102t-194.5 281
l-18 61q-94 -4 -150 -4q-20 0 -20 23v141q0 20 20 20q88 0 129 2v17q0 157 41.5 316.5t140.5 328t246 299.5zM293 201l72 12q232 42 347 133t115 223q0 195 -151 359q-33 38 -64 65q-77 -67 -129 -145q-92 -136 -141 -298.5t-49 -307.5v-41zM401 35q-28 -4 -77 -15
q0 -2 2 -4q48 -137 141 -205.5t211 -68.5q81 0 129.5 32t48.5 91q0 67 -41 135q-36 56 -113 133q-126 -63 -301 -98z" />
    <glyph glyph-name="uniFBAF" unicode="&#x6d2;" horiz-adv-x="1503" arabic-form="final" 
d="M547 184h956q21 0 21 -20v-141q0 -23 -21 -23h-1011q-226 0 -226 -129q0 -67 69.5 -97t207.5 -30h712l-77 -184h-586q-259 0 -379.5 74t-120.5 233q0 156 114.5 236.5t340.5 80.5z" />
    <glyph glyph-name="uniFBB1" unicode="&#x6d3;" horiz-adv-x="1503" arabic-form="final" 
d="M547 184h956q21 0 21 -20v-141q0 -23 -21 -23h-1011q-226 0 -226 -129q0 -67 69.5 -97t207.5 -30h712l-77 -184h-586q-259 0 -379.5 74t-120.5 233q0 156 114.5 236.5t340.5 80.5zM739 621h205l-45 -150h-256q-106 0 -217 -35v144q79 26 111 32l12 4l-8 7q-37 46 -37 104
q0 84 59 140.5t156 56.5q70 0 149 -39v-137q-85 26 -139 26q-42 0 -70 -21t-28 -55q0 -39 33 -59q27 -15 75 -18z" />
    <glyph glyph-name="uniFBFD" unicode="&#x6cc;" horiz-adv-x="1390" arabic-form="final" 
d="M993 70v174q159 -37 235.5 -48.5t162.5 -11.5q20 0 20 -20v-141q0 -23 -20 -23h-19q-88 -202 -252 -313q-186 -127 -458 -127q-279 0 -429.5 141t-150.5 416q0 118 22 220.5t70 246.5h164q-92 -237 -92 -437q0 -209 111.5 -306t342.5 -97q146 0 266.5 50.5t198.5 150.5
q30 39 47 71q-176 42 -219 54z" />
    <glyph glyph-name="uniFBFE" unicode="&#x6cc;" horiz-adv-x="681" arabic-form="initial" 
d="M342 993h174q62 -434 62 -602q0 -184 -106 -287.5t-312 -103.5h-160q-20 0 -20 23v141q0 20 20 20h160q132 0 190 51.5t58 161.5q0 146 -66 596zM-35 -313l154 153l155 -149l154 149l156 -153l-156 -156l-154 152l-153 -152z" />
    <glyph glyph-name="uniFBFF" unicode="&#x6cc;" horiz-adv-x="757" arabic-form="medial" 
d="M319 758h162q0 -197 -16 -338q-7 -59 -25 -127q71 -52 142 -78q85 -31 176 -31q20 0 20 -20v-141q0 -23 -20 -23q-199 0 -379 160q-51 -69 -129 -109q-99 -51 -250 -51q-20 0 -20 23v141q0 20 20 20q201 0 264 109q35 58 45 156t10 309zM37 -313l153 153l156 -149
l154 149l155 -153l-155 -156l-154 152l-153 -152z" />
    <glyph glyph-name="uniFC02" unicode="&#xfc02;" horiz-adv-x="1110" arabic-form="isolated" 
d="M823 1090h21l108 -111q-122 -106 -172.5 -192.5t-50.5 -190.5q0 -117 57 -203q42 -61 103 -119q80 -42 149 -86l-88 -161q-87 15 -159 53q-52 26 -109 74q-68 24 -123 36q-71 15 -133 15q-94 0 -137 -45t-43 -148q0 -174 67 -575h-174q-67 417 -67 598q0 163 95 258.5
t247 95.5q56 0 127 -12l86 -19l-29 58q-43 104 -43 202q0 134 70.5 256t197.5 216zM856 1389h205l-45 -150h-256q-106 0 -217 -35v144q81 26 110 32l13 4l-9 7q-36 45 -36 104q0 84 59 140.5t156 56.5q70 0 149 -39v-137q-85 26 -139 26q-42 0 -70 -21t-28 -55q0 -40 32 -59
q27 -15 76 -18z" />
    <glyph glyph-name="uniFC03" unicode="&#xfc03;" horiz-adv-x="1804" arabic-form="isolated" 
d="M1423 993h174q62 -434 62 -602q0 -187 -105 -289q-77 -74 -198 -94q-88 -208 -250 -321q-183 -127 -455 -127q-277 0 -423 140.5t-146 416.5q0 118 22 220.5t70 246.5h164q-92 -237 -92 -437q0 -210 107 -306.5t337 -96.5q194 0 334 88q100 57 160 168h-312l31 184h338
q133 0 191.5 51.5t58.5 161.5q0 86 -14 205.5t-54 390.5zM1550 1247h205l-45 -149h-256q-106 0 -217 -35v143q87 28 111 33l12 4l-8 6q-37 46 -37 105q0 84 59 140t156 56q70 0 149 -39v-137q-89 27 -139 27q-42 0 -70 -21t-28 -55q0 -39 33 -59q29 -16 75 -19z" />
    <glyph glyph-name="uniFC04" unicode="&#xfc04;" horiz-adv-x="1804" arabic-form="isolated" 
d="M1423 993h174q62 -434 62 -602q0 -187 -105 -289q-77 -74 -198 -94q-88 -208 -250 -321q-183 -127 -455 -127q-277 0 -423 140.5t-146 416.5q0 118 22 220.5t70 246.5h164q-92 -237 -92 -437q0 -210 107 -306.5t337 -96.5q194 0 334 88q100 57 160 168h-312l31 184h338
q133 0 191.5 51.5t58.5 161.5q0 86 -14 205.5t-54 390.5zM1550 1247h205l-45 -149h-256q-106 0 -217 -35v143q87 28 111 33l12 4l-8 6q-37 46 -37 105q0 84 59 140t156 56q70 0 149 -39v-137q-89 27 -139 27q-42 0 -70 -21t-28 -55q0 -39 33 -59q29 -16 75 -19zM526 -713
l154 154l156 -150l153 150l156 -154l-156 -155l-153 151l-154 -151z" />
    <glyph glyph-name="uniFC08" unicode="&#xfc08;" horiz-adv-x="1110" arabic-form="isolated" 
d="M823 1090h21l108 -111q-122 -106 -172.5 -192.5t-50.5 -190.5q0 -117 57 -203q42 -61 103 -119q80 -42 149 -86l-88 -161q-87 15 -159 53q-52 26 -109 74q-68 24 -123 36q-71 15 -133 15q-94 0 -137 -45t-43 -148q0 -174 67 -575h-174q-67 417 -67 598q0 163 95 258.5
t247 95.5q56 0 127 -12l86 -19l-29 58q-43 104 -43 202q0 134 70.5 256t197.5 216zM498 -311l153 153l158 -153l-154 -156z" />
    <glyph glyph-name="uniFC09" unicode="&#xfc09;" horiz-adv-x="1783" arabic-form="isolated" 
d="M1423 993h174q62 -434 62 -602q0 -187 -105 -289q-77 -74 -198 -94q-88 -208 -250 -321q-183 -127 -455 -127q-277 0 -423 140.5t-146 416.5q0 118 22 220.5t70 246.5h164q-92 -237 -92 -437q0 -210 107 -306.5t337 -96.5q194 0 334 88q100 57 160 168h-312l31 184h338
q133 0 191.5 51.5t58.5 161.5q0 86 -14 205.5t-54 390.5zM1337 -311l154 153l158 -153l-154 -156z" />
    <glyph glyph-name="uniFC0A" unicode="&#xfc0a;" horiz-adv-x="1783" arabic-form="isolated" 
d="M1423 993h174q62 -434 62 -602q0 -187 -105 -289q-77 -74 -198 -94q-88 -208 -250 -321q-183 -127 -455 -127q-277 0 -423 140.5t-146 416.5q0 118 22 220.5t70 246.5h164q-92 -237 -92 -437q0 -210 107 -306.5t337 -96.5q194 0 334 88q100 57 160 168h-312l31 184h338
q133 0 191.5 51.5t58.5 161.5q0 86 -14 205.5t-54 390.5zM1337 -311l154 153l158 -153l-154 -156zM526 -713l154 154l156 -150l153 150l156 -154l-156 -155l-153 151l-154 -151z" />
    <glyph glyph-name="uniFC0E" unicode="&#xfc0e;" horiz-adv-x="1110" arabic-form="isolated" 
d="M823 1090h21l108 -111q-122 -106 -172.5 -192.5t-50.5 -190.5q0 -117 57 -203q42 -61 103 -119q80 -42 149 -86l-88 -161q-87 15 -159 53q-52 26 -109 74q-68 24 -123 36q-71 15 -133 15q-94 0 -137 -45t-43 -148q0 -174 67 -575h-174q-67 417 -67 598q0 163 95 258.5
t247 95.5q56 0 127 -12l86 -19l-29 58q-43 104 -43 202q0 134 70.5 256t197.5 216zM528 1376l154 156l156 -152l153 152l156 -156l-156 -153l-153 149l-154 -149z" />
    <glyph glyph-name="uniFC0F" unicode="&#xfc0f;" horiz-adv-x="1861" arabic-form="isolated" 
d="M1423 993h174q62 -434 62 -602q0 -187 -105 -289q-77 -74 -198 -94q-88 -208 -250 -321q-183 -127 -455 -127q-277 0 -423 140.5t-146 416.5q0 118 22 220.5t70 246.5h164q-92 -237 -92 -437q0 -210 107 -306.5t337 -96.5q194 0 334 88q100 57 160 168h-312l31 184h338
q133 0 191.5 51.5t58.5 161.5q0 86 -14 205.5t-54 390.5zM1194 1305l154 155l155 -151l154 151l155 -155l-155 -154l-154 149l-153 -149z" />
    <glyph glyph-name="uniFC10" unicode="&#xfc10;" horiz-adv-x="1861" arabic-form="isolated" 
d="M1423 993h174q62 -434 62 -602q0 -187 -105 -289q-77 -74 -198 -94q-88 -208 -250 -321q-183 -127 -455 -127q-277 0 -423 140.5t-146 416.5q0 118 22 220.5t70 246.5h164q-92 -237 -92 -437q0 -210 107 -306.5t337 -96.5q194 0 334 88q100 57 160 168h-312l31 184h338
q133 0 191.5 51.5t58.5 161.5q0 86 -14 205.5t-54 390.5zM1194 1305l154 155l155 -151l154 151l155 -155l-155 -154l-154 149l-153 -149zM526 -713l154 154l156 -150l153 150l156 -154l-156 -155l-153 151l-154 -151z" />
    <glyph glyph-name="uniFC12" unicode="&#xfc12;" horiz-adv-x="1110" arabic-form="isolated" 
d="M823 1090h21l108 -111q-122 -106 -172.5 -192.5t-50.5 -190.5q0 -117 57 -203q42 -61 103 -119q80 -42 149 -86l-88 -161q-87 15 -159 53q-52 26 -109 74q-68 24 -123 36q-71 15 -133 15q-94 0 -137 -45t-43 -148q0 -174 67 -575h-174q-67 417 -67 598q0 163 95 258.5
t247 95.5q56 0 127 -12l86 -19l-29 58q-43 104 -43 202q0 134 70.5 256t197.5 216zM850 1403l158 158l155 -158l-155 -154zM516 1403l154 158l157 -158l-155 -154zM717 1651l123 125l125 -125l-123 -123z" />
    <glyph glyph-name="uniFC13" unicode="&#xfc13;" horiz-adv-x="1880" arabic-form="isolated" 
d="M1423 993h174q62 -434 62 -602q0 -187 -105 -289q-77 -74 -198 -94q-88 -208 -250 -321q-183 -127 -455 -127q-277 0 -423 140.5t-146 416.5q0 118 22 220.5t70 246.5h164q-92 -237 -92 -437q0 -210 107 -306.5t337 -96.5q194 0 334 88q100 57 160 168h-312l31 184h338
q133 0 191.5 51.5t58.5 161.5q0 86 -14 205.5t-54 390.5zM1516 1298l157 158l156 -158l-156 -153zM1182 1298l153 158l158 -158l-156 -153zM1382 1546l123 125l125 -125l-123 -123z" />
    <glyph glyph-name="uniFC14" unicode="&#xfc14;" horiz-adv-x="1880" arabic-form="isolated" 
d="M1423 993h174q62 -434 62 -602q0 -187 -105 -289q-77 -74 -198 -94q-88 -208 -250 -321q-183 -127 -455 -127q-277 0 -423 140.5t-146 416.5q0 118 22 220.5t70 246.5h164q-92 -237 -92 -437q0 -210 107 -306.5t337 -96.5q194 0 334 88q100 57 160 168h-312l31 184h338
q133 0 191.5 51.5t58.5 161.5q0 86 -14 205.5t-54 390.5zM1516 1298l157 158l156 -158l-156 -153zM1182 1298l153 158l158 -158l-156 -153zM1382 1546l123 125l125 -125l-123 -123zM526 -713l154 154l156 -150l153 150l156 -154l-156 -155l-153 151l-154 -151z" />
    <glyph glyph-name="uniFC31" unicode="&#xfc31;" horiz-adv-x="1763" arabic-form="isolated" 
d="M1251 1208q172 0 282 -112t122 -301q16 -301 16 -373q0 -161 -78.5 -263t-232.5 -139q-189 -460 -719 -460q-269 0 -414 141t-145 416q0 118 22 220.5t70 246.5h164q-92 -237 -92 -437q0 -208 107.5 -305.5t326.5 -97.5q355 0 504 256h-322l31 184h301q161 0 231 56
t76 190q-131 -61 -254 -61q-188 0 -294.5 101.5t-106.5 291.5q0 195 115.5 320.5t289.5 125.5zM1239 1024q-95 0 -157 -70t-62 -184q0 -116 67.5 -177t186.5 -61q118 0 221 35q-3 34 -7 104.5t-7 104.5q-7 119 -72 183.5t-170 64.5zM1098 1489l153 156l158 -156l-154 -154z
" />
    <glyph glyph-name="uniFC32" unicode="&#xfc32;" horiz-adv-x="1763" arabic-form="isolated" 
d="M1251 1208q172 0 282 -112t122 -301q16 -301 16 -373q0 -161 -78.5 -263t-232.5 -139q-189 -460 -719 -460q-269 0 -414 141t-145 416q0 118 22 220.5t70 246.5h164q-92 -237 -92 -437q0 -208 107.5 -305.5t326.5 -97.5q355 0 504 256h-322l31 184h301q161 0 231 56
t76 190q-131 -61 -254 -61q-188 0 -294.5 101.5t-106.5 291.5q0 195 115.5 320.5t289.5 125.5zM1239 1024q-95 0 -157 -70t-62 -184q0 -116 67.5 -177t186.5 -61q118 0 221 35q-3 34 -7 104.5t-7 104.5q-7 119 -72 183.5t-170 64.5zM1087 1489l154 156l158 -156l-154 -154z
M465 -713l153 154l156 -150l154 150l155 -154l-155 -155l-154 151l-153 -151z" />
    <glyph glyph-name="uniFC35" unicode="&#xfc35;" horiz-adv-x="1763" arabic-form="isolated" 
d="M1251 1208q172 0 282 -112t122 -301q16 -301 16 -373q0 -161 -78.5 -263t-232.5 -139q-189 -460 -719 -460q-269 0 -414 141t-145 416q0 118 22 220.5t70 246.5h164q-92 -237 -92 -437q0 -208 107.5 -305.5t326.5 -97.5q355 0 504 256h-322l31 184h301q161 0 231 56
t76 190q-131 -61 -254 -61q-188 0 -294.5 101.5t-106.5 291.5q0 195 115.5 320.5t289.5 125.5zM1239 1024q-95 0 -157 -70t-62 -184q0 -116 67.5 -177t186.5 -61q118 0 221 35q-3 34 -7 104.5t-7 104.5q-7 119 -72 183.5t-170 64.5zM948 1491l154 156l155 -152l154 152
l156 -156l-156 -154l-154 150l-153 -150z" />
    <glyph glyph-name="uniFC36" unicode="&#xfc36;" horiz-adv-x="1763" arabic-form="isolated" 
d="M1251 1208q172 0 282 -112t122 -301q16 -301 16 -373q0 -161 -78.5 -263t-232.5 -139q-189 -460 -719 -460q-269 0 -414 141t-145 416q0 118 22 220.5t70 246.5h164q-92 -237 -92 -437q0 -208 107.5 -305.5t326.5 -97.5q355 0 504 256h-322l31 184h301q161 0 231 56
t76 190q-131 -61 -254 -61q-188 0 -294.5 101.5t-106.5 291.5q0 195 115.5 320.5t289.5 125.5zM1239 1024q-95 0 -157 -70t-62 -184q0 -116 67.5 -177t186.5 -61q118 0 221 35q-3 34 -7 104.5t-7 104.5q-7 119 -72 183.5t-170 64.5zM948 1491l154 156l155 -152l154 152
l156 -156l-156 -154l-154 150l-153 -150zM496 -713l153 154l156 -150l153 150l156 -154l-156 -155l-153 151l-154 -151z" />
    <glyph glyph-name="uniFC3D" unicode="&#xfc3d;" horiz-adv-x="2891" arabic-form="isolated" 
d="M2540 1628h260v-8l-754 -598l356 -156q418 -181 418 -456q0 -185 -146 -297.5t-393 -112.5h-448h-4q-221 0 -339 115.5t-118 335.5q0 69 10 174q7 65 31 180q-122 -9 -221 -33q-163 -39 -255.5 -109.5t-92.5 -148.5q0 -51 31.5 -86.5t132.5 -103.5l90 -60
q113 -72 162 -146.5t49 -164.5q0 -176 -159 -284.5t-437 -108.5q-196 0 -335 58t-217.5 184t-78.5 315q0 118 22 220.5t70 246.5h164q-92 -237 -92 -437q0 -206 129 -305.5t405 -99.5q165 0 265 53.5t100 136.5q0 40 -37 80.5t-121 98.5l-94 63q-117 79 -166 151t-49 171
q0 188 191.5 322.5t572.5 174.5l145 -114q-59 -276 -59 -406q0 -289 301 -289h4h465q151 0 249.5 61.5t98.5 155.5q0 85 -75.5 155t-254.5 149l-491 217v139z" />
    <glyph glyph-name="uniFC3E" unicode="&#xfc3e;" horiz-adv-x="2891" arabic-form="isolated" 
d="M2540 1628h260v-8l-754 -598l356 -156q418 -181 418 -456q0 -185 -146 -297.5t-393 -112.5h-448h-4q-221 0 -339 115.5t-118 335.5q0 69 10 174q7 65 31 180q-122 -9 -221 -33q-163 -39 -255.5 -109.5t-92.5 -148.5q0 -51 31.5 -86.5t132.5 -103.5l90 -60
q113 -72 162 -146.5t49 -164.5q0 -176 -159 -284.5t-437 -108.5q-196 0 -335 58t-217.5 184t-78.5 315q0 118 22 220.5t70 246.5h164q-92 -237 -92 -437q0 -206 129 -305.5t405 -99.5q165 0 265 53.5t100 136.5q0 40 -37 80.5t-121 98.5l-94 63q-117 79 -166 151t-49 171
q0 188 191.5 322.5t572.5 174.5l145 -114q-59 -276 -59 -406q0 -289 301 -289h4h465q151 0 249.5 61.5t98.5 155.5q0 85 -75.5 155t-254.5 149l-491 217v139zM526 -713l154 154l156 -150l153 150l156 -154l-156 -155l-153 151l-154 -151z" />
    <glyph glyph-name="uniFC42" unicode="&#xfc42;" horiz-adv-x="1058" arabic-form="isolated" 
d="M623 1485h174v-1161q16 -6 48 -20.5t42 -18.5q87 -40 172 -97l-88 -161q-89 15 -160 53q-52 26 -109 74q-69 25 -122 36q-70 15 -134 15q-94 0 -137 -45t-43 -148q0 -168 68 -575h-174q-68 423 -68 598q0 163 95 258.5t247 95.5q56 0 127 -12q14 -2 76 -17v5
q-14 85 -14 182v938z" />
    <glyph glyph-name="uniFC44" unicode="&#xfc44;" horiz-adv-x="1771" arabic-form="isolated" 
d="M1423 1485h174v-1094q0 -180 -104 -287q-52 -52 -131 -79q-87 -216 -254 -334q-177 -131 -467 -131q-269 0 -414 141t-145 416q0 118 22 220.5t70 246.5h164q-92 -237 -92 -437q0 -208 107.5 -305.5t326.5 -97.5q205 0 348 90q100 65 156 166h-4h-308l31 184h277
q132 0 187.5 51t55.5 162v1088zM481 -692l154 153l156 -149l153 149l156 -153l-156 -156l-153 152l-154 -152z" />
    <glyph glyph-name="uniFC4E" unicode="&#xfc4e;" horiz-adv-x="1110" arabic-form="isolated" 
d="M823 1090h21l108 -111q-122 -106 -172.5 -192.5t-50.5 -190.5q0 -117 57 -203q42 -61 103 -119q80 -42 149 -86l-88 -161q-87 15 -159 53q-52 26 -109 74q-68 24 -123 36q-71 15 -133 15q-94 0 -137 -45t-43 -148q0 -174 67 -575h-174q-67 417 -67 598q0 163 95 258.5
t247 95.5q56 0 127 -12l86 -19l-29 58q-43 104 -43 202q0 134 70.5 256t197.5 216zM684 1391l154 155l157 -155l-153 -154z" />
    <glyph glyph-name="uniFC4F" unicode="&#xfc4f;" horiz-adv-x="1771" arabic-form="isolated" 
d="M1423 993h174q62 -434 62 -602q0 -187 -105 -289q-77 -74 -198 -94q-88 -208 -250 -321q-183 -127 -455 -127q-277 0 -423 140.5t-146 416.5q0 118 22 220.5t70 246.5h164q-92 -237 -92 -437q0 -210 107 -306.5t337 -96.5q194 0 334 88q100 57 160 168h-312l31 184h338
q133 0 191.5 51.5t58.5 161.5q0 86 -14 205.5t-54 390.5zM1339 1294l154 156l158 -156l-154 -153z" />
    <glyph glyph-name="uniFC50" unicode="&#xfc50;" horiz-adv-x="1771" arabic-form="isolated" 
d="M1423 993h174q62 -434 62 -602q0 -187 -105 -289q-77 -74 -198 -94q-88 -208 -250 -321q-183 -127 -455 -127q-277 0 -423 140.5t-146 416.5q0 118 22 220.5t70 246.5h164q-92 -237 -92 -437q0 -210 107 -306.5t337 -96.5q194 0 334 88q100 57 160 168h-312l31 184h338
q133 0 191.5 51.5t58.5 161.5q0 86 -14 205.5t-54 390.5zM1339 1294l154 156l158 -156l-154 -153zM526 -713l154 154l156 -150l153 150l156 -154l-156 -155l-153 151l-154 -151z" />
    <glyph glyph-name="uniFC58" unicode="&#xfc58;" horiz-adv-x="1110" arabic-form="isolated" 
d="M823 1090h21l108 -111q-122 -106 -172.5 -192.5t-50.5 -190.5q0 -117 57 -203q42 -61 103 -119q80 -42 149 -86l-88 -161q-87 15 -159 53q-52 26 -109 74q-68 24 -123 36q-71 15 -133 15q-94 0 -137 -45t-43 -148q0 -174 67 -575h-174q-67 417 -67 598q0 163 95 258.5
t247 95.5q56 0 127 -12l86 -19l-29 58q-43 104 -43 202q0 134 70.5 256t197.5 216zM369 -305l153 153l156 -149l153 149l156 -153l-156 -156l-153 152l-154 -152z" />
    <glyph glyph-name="uniFC64" unicode="&#xfc64;" horiz-adv-x="1234" arabic-form="final" 
d="M911 940l162 -90q-49 -217 -49 -385q0 -147 49.5 -214t161.5 -67q20 0 20 -20v-141q0 -23 -20 -23q-184 0 -278.5 101t-94.5 294q0 78 10 191q10 94 23 164q-217 -108 -440 -148q6 -69 20 -250q12 -138 12 -299q0 -157 -67.5 -270t-183.5 -168t-267 -55v168
q153 0 253 86.5t100 246.5q0 246 -56 672l21 25q184 16 322.5 59.5t301.5 122.5zM965 1300h204l-45 -149h-256q-106 0 -217 -35v144q79 26 111 32l12 4l-8 7q-37 46 -37 104q0 84 59 140.5t156 56.5q71 0 150 -39v-138q-88 27 -140 27q-42 0 -70 -21t-28 -55q0 -39 33 -59
q29 -16 76 -19z" />
    <glyph glyph-name="uniFC65" unicode="&#xfc65;" horiz-adv-x="1234" arabic-form="final" 
d="M911 940l162 -90q-49 -217 -49 -385q0 -147 49.5 -214t161.5 -67q20 0 20 -20v-141q0 -23 -20 -23q-184 0 -278.5 101t-94.5 294q0 78 10 191q10 94 23 164q-217 -108 -440 -148q6 -69 20 -250q12 -138 12 -299q0 -157 -67.5 -270t-183.5 -168t-267 -55v168
q153 0 253 86.5t100 246.5q0 246 -56 672l21 25q184 16 322.5 59.5t301.5 122.5zM139 1137l154 155l158 -155l-154 -154zM985 1300h205l-45 -149h-256q-106 0 -217 -35v144q81 26 110 32l13 4l-9 7q-36 45 -36 104q0 84 59 140.5t156 56.5q70 0 149 -39v-138q-88 27 -139 27
q-42 0 -70 -21t-28 -55q0 -40 32 -59q29 -16 76 -19z" />
    <glyph glyph-name="uniFC67" unicode="&#xfc67;" horiz-adv-x="1921" arabic-form="final" 
d="M1597 940l162 -90q-47 -208 -47 -385q0 -148 48.5 -214.5t160.5 -66.5q21 0 21 -20v-141q0 -23 -21 -23q-184 0 -278.5 101t-94.5 294q0 66 11 191q9 85 24 166q-108 -57 -217 -93q-111 -38 -223 -57l20 -190q8 -96 8 -209q0 -141 -35 -257t-105 -203t-182.5 -135
t-258.5 -48q-242 0 -375 144.5t-133 412.5q0 118 22 220.5t70 246.5h164q-92 -237 -92 -437q0 -193 88 -298t272 -105q206 0 300.5 110.5t94.5 348.5q0 174 -49 530l21 25q184 16 322.5 59.5t301.5 122.5zM1640 1298h189l-45 -149h-256q-106 0 -217 -35v143q86 28 108 33
l13 4l-7 6q-36 45 -36 105q0 84 59 140.5t156 56.5q70 0 149 -39v-138q-88 27 -139 27q-42 0 -70 -21t-28 -55q0 -38 33 -58t91 -20zM449 963l153 155l158 -155l-154 -154z" />
    <glyph glyph-name="uniFC68" unicode="&#xfc68;" horiz-adv-x="1851" arabic-form="final" 
d="M1442 993l145 -102q-59 -276 -59 -418q0 -139 86 -214t237 -75q21 0 21 -20v-141q0 -23 -21 -23q-222 0 -350.5 117.5t-128.5 333.5q0 69 10 174q7 65 31 180q-122 -9 -221 -33q-163 -39 -255.5 -109.5t-92.5 -148.5q0 -51 31.5 -86.5t132.5 -103.5l90 -60
q113 -72 162 -146.5t49 -164.5q0 -176 -159 -284.5t-437 -108.5q-196 0 -335 58t-217.5 184t-78.5 315q0 118 22 220.5t70 246.5h164q-92 -237 -92 -437q0 -206 129 -305.5t405 -99.5q165 0 265 53.5t100 136.5q0 40 -37 80.5t-121 98.5l-94 63q-117 79 -166 151t-49 171
q0 188 191.5 322.5t572.5 174.5zM1411 1341h205l-45 -149h-256q-106 0 -217 -35v143q88 29 110 33l13 4l-9 6q-36 45 -36 105q0 84 59 140.5t156 56.5q70 0 149 -39v-138q-89 27 -139 27q-42 0 -70 -21t-28 -55q0 -40 32 -59q29 -16 76 -19z" />
    <glyph glyph-name="uniFC69" unicode="&#xfc69;" horiz-adv-x="1851" arabic-form="final" 
d="M1442 993l145 -102q-59 -276 -59 -418q0 -139 86 -214t237 -75q21 0 21 -20v-141q0 -23 -21 -23q-222 0 -350.5 117.5t-128.5 333.5q0 69 10 174q7 65 31 180q-122 -9 -221 -33q-163 -39 -255.5 -109.5t-92.5 -148.5q0 -51 31.5 -86.5t132.5 -103.5l90 -60
q113 -72 162 -146.5t49 -164.5q0 -176 -159 -284.5t-437 -108.5q-196 0 -335 58t-217.5 184t-78.5 315q0 118 22 220.5t70 246.5h164q-92 -237 -92 -437q0 -206 129 -305.5t405 -99.5q165 0 265 53.5t100 136.5q0 40 -37 80.5t-121 98.5l-94 63q-117 79 -166 151t-49 171
q0 188 191.5 322.5t572.5 174.5zM1411 1341h205l-45 -149h-256q-106 0 -217 -35v143q88 29 110 33l13 4l-9 6q-36 45 -36 105q0 84 59 140.5t156 56.5q70 0 149 -39v-138q-89 27 -139 27q-42 0 -70 -21t-28 -55q0 -40 32 -59q29 -16 76 -19zM526 -713l154 154l156 -150
l153 150l156 -154l-156 -155l-153 151l-154 -151z" />
    <glyph glyph-name="uniFC6A" unicode="&#xfc6a;" horiz-adv-x="1234" arabic-form="final" 
d="M911 940l162 -90q-49 -217 -49 -385q0 -147 49.5 -214t161.5 -67q20 0 20 -20v-141q0 -23 -20 -23q-184 0 -278.5 101t-94.5 294q0 78 10 191q10 94 23 164q-217 -108 -440 -148q6 -69 20 -250q12 -138 12 -299q0 -157 -67.5 -270t-183.5 -168t-267 -55v168
q153 0 253 86.5t100 246.5q0 246 -56 672l21 25q184 16 322.5 59.5t301.5 122.5zM618 -311l154 153l158 -153l-154 -156z" />
    <glyph glyph-name="uniFC6B" unicode="&#xfc6b;" horiz-adv-x="1234" arabic-form="final" 
d="M911 940l162 -90q-49 -217 -49 -385q0 -147 49.5 -214t161.5 -67q20 0 20 -20v-141q0 -23 -20 -23q-184 0 -278.5 101t-94.5 294q0 78 10 191q10 94 23 164q-217 -108 -440 -148q6 -69 20 -250q12 -138 12 -299q0 -157 -67.5 -270t-183.5 -168t-267 -55v168
q153 0 253 86.5t100 246.5q0 246 -56 672l21 25q184 16 322.5 59.5t301.5 122.5zM139 1137l154 155l158 -155l-154 -154zM618 -311l154 153l158 -153l-154 -156z" />
    <glyph glyph-name="uniFC6D" unicode="&#xfc6d;" horiz-adv-x="1921" arabic-form="final" 
d="M1597 940l162 -90q-47 -208 -47 -385q0 -148 48.5 -214.5t160.5 -66.5q21 0 21 -20v-141q0 -23 -21 -23q-184 0 -278.5 101t-94.5 294q0 66 11 191q9 85 24 166q-108 -57 -217 -93q-111 -38 -223 -57l20 -190q8 -96 8 -209q0 -141 -35 -257t-105 -203t-182.5 -135
t-258.5 -48q-242 0 -375 144.5t-133 412.5q0 118 22 220.5t70 246.5h164q-92 -237 -92 -437q0 -193 88 -298t272 -105q206 0 300.5 110.5t94.5 348.5q0 174 -49 530l21 25q184 16 322.5 59.5t301.5 122.5zM1266 -313l153 153l158 -153l-154 -156zM449 963l153 155l158 -155
l-154 -154z" />
    <glyph glyph-name="uniFC6E" unicode="&#xfc6e;" horiz-adv-x="1851" arabic-form="final" 
d="M1442 993l145 -102q-59 -276 -59 -418q0 -139 86 -214t237 -75q21 0 21 -20v-141q0 -23 -21 -23q-222 0 -350.5 117.5t-128.5 333.5q0 69 10 174q7 65 31 180q-122 -9 -221 -33q-163 -39 -255.5 -109.5t-92.5 -148.5q0 -51 31.5 -86.5t132.5 -103.5l90 -60
q113 -72 162 -146.5t49 -164.5q0 -176 -159 -284.5t-437 -108.5q-196 0 -335 58t-217.5 184t-78.5 315q0 118 22 220.5t70 246.5h164q-92 -237 -92 -437q0 -206 129 -305.5t405 -99.5q165 0 265 53.5t100 136.5q0 40 -37 80.5t-121 98.5l-94 63q-117 79 -166 151t-49 171
q0 188 191.5 322.5t572.5 174.5zM1409 -311l154 153l157 -153l-153 -156z" />
    <glyph glyph-name="uniFC6F" unicode="&#xfc6f;" horiz-adv-x="1851" arabic-form="final" 
d="M1442 993l145 -102q-59 -276 -59 -418q0 -139 86 -214t237 -75q21 0 21 -20v-141q0 -23 -21 -23q-222 0 -350.5 117.5t-128.5 333.5q0 69 10 174q7 65 31 180q-122 -9 -221 -33q-163 -39 -255.5 -109.5t-92.5 -148.5q0 -51 31.5 -86.5t132.5 -103.5l90 -60
q113 -72 162 -146.5t49 -164.5q0 -176 -159 -284.5t-437 -108.5q-196 0 -335 58t-217.5 184t-78.5 315q0 118 22 220.5t70 246.5h164q-92 -237 -92 -437q0 -206 129 -305.5t405 -99.5q165 0 265 53.5t100 136.5q0 40 -37 80.5t-121 98.5l-94 63q-117 79 -166 151t-49 171
q0 188 191.5 322.5t572.5 174.5zM1409 -311l154 153l157 -153l-153 -156zM526 -713l154 154l156 -150l153 150l156 -154l-156 -155l-153 151l-154 -151z" />
    <glyph glyph-name="uniFC70" unicode="&#xfc70;" horiz-adv-x="1234" arabic-form="final" 
d="M911 940l162 -90q-49 -217 -49 -385q0 -147 49.5 -214t161.5 -67q20 0 20 -20v-141q0 -23 -20 -23q-184 0 -278.5 101t-94.5 294q0 78 10 191q10 94 23 164q-217 -108 -440 -148q6 -69 20 -250q12 -138 12 -299q0 -157 -67.5 -270t-183.5 -168t-267 -55v168
q153 0 253 86.5t100 246.5q0 246 -56 672l21 25q184 16 322.5 59.5t301.5 122.5zM520 1290l154 156l155 -152l154 152l156 -156l-156 -153l-154 149l-153 -149z" />
    <glyph glyph-name="uniFC71" unicode="&#xfc71;" horiz-adv-x="1234" arabic-form="final" 
d="M911 940l162 -90q-49 -217 -49 -385q0 -147 49.5 -214t161.5 -67q20 0 20 -20v-141q0 -23 -20 -23q-184 0 -278.5 101t-94.5 294q0 78 10 191q10 94 23 164q-217 -108 -440 -148q6 -69 20 -250q12 -138 12 -299q0 -157 -67.5 -270t-183.5 -168t-267 -55v168
q153 0 253 86.5t100 246.5q0 246 -56 672l21 25q184 16 322.5 59.5t301.5 122.5zM139 1137l154 155l158 -155l-154 -154zM629 1290l153 156l156 -152l154 152l155 -156l-155 -153l-154 149l-154 -149z" />
    <glyph glyph-name="uniFC73" unicode="&#xfc73;" horiz-adv-x="1921" arabic-form="final" 
d="M1597 940l162 -90q-47 -208 -47 -385q0 -148 48.5 -214.5t160.5 -66.5q21 0 21 -20v-141q0 -23 -21 -23q-184 0 -278.5 101t-94.5 294q0 66 11 191q9 85 24 166q-108 -57 -217 -93q-111 -38 -223 -57l20 -190q8 -96 8 -209q0 -141 -35 -257t-105 -203t-182.5 -135
t-258.5 -48q-242 0 -375 144.5t-133 412.5q0 118 22 220.5t70 246.5h164q-92 -237 -92 -437q0 -193 88 -298t272 -105q206 0 300.5 110.5t94.5 348.5q0 174 -49 530l21 25q184 16 322.5 59.5t301.5 122.5zM1202 1292l154 156l155 -152l154 152l156 -156l-156 -153l-154 149
l-153 -149zM449 963l153 155l158 -155l-154 -154z" />
    <glyph glyph-name="uniFC74" unicode="&#xfc74;" horiz-adv-x="1851" arabic-form="final" 
d="M1442 993l145 -102q-59 -276 -59 -418q0 -139 86 -214t237 -75q21 0 21 -20v-141q0 -23 -21 -23q-222 0 -350.5 117.5t-128.5 333.5q0 69 10 174q7 65 31 180q-122 -9 -221 -33q-163 -39 -255.5 -109.5t-92.5 -148.5q0 -51 31.5 -86.5t132.5 -103.5l90 -60
q113 -72 162 -146.5t49 -164.5q0 -176 -159 -284.5t-437 -108.5q-196 0 -335 58t-217.5 184t-78.5 315q0 118 22 220.5t70 246.5h164q-92 -237 -92 -437q0 -206 129 -305.5t405 -99.5q165 0 265 53.5t100 136.5q0 40 -37 80.5t-121 98.5l-94 63q-117 79 -166 151t-49 171
q0 188 191.5 322.5t572.5 174.5zM1047 1358l153 155l156 -151l153 151l156 -155l-156 -154l-153 150l-154 -150z" />
    <glyph glyph-name="uniFC75" unicode="&#xfc75;" horiz-adv-x="1851" arabic-form="final" 
d="M1442 993l145 -102q-59 -276 -59 -418q0 -139 86 -214t237 -75q21 0 21 -20v-141q0 -23 -21 -23q-222 0 -350.5 117.5t-128.5 333.5q0 69 10 174q7 65 31 180q-122 -9 -221 -33q-163 -39 -255.5 -109.5t-92.5 -148.5q0 -51 31.5 -86.5t132.5 -103.5l90 -60
q113 -72 162 -146.5t49 -164.5q0 -176 -159 -284.5t-437 -108.5q-196 0 -335 58t-217.5 184t-78.5 315q0 118 22 220.5t70 246.5h164q-92 -237 -92 -437q0 -206 129 -305.5t405 -99.5q165 0 265 53.5t100 136.5q0 40 -37 80.5t-121 98.5l-94 63q-117 79 -166 151t-49 171
q0 188 191.5 322.5t572.5 174.5zM1047 1358l153 155l156 -151l153 151l156 -155l-156 -154l-153 150l-154 -150zM528 -713l154 154l156 -150l153 150l156 -154l-156 -155l-153 151l-154 -151z" />
    <glyph glyph-name="uniFC76" unicode="&#xfc76;" horiz-adv-x="1234" arabic-form="final" 
d="M911 940l162 -90q-49 -217 -49 -385q0 -147 49.5 -214t161.5 -67q20 0 20 -20v-141q0 -23 -20 -23q-184 0 -278.5 101t-94.5 294q0 78 10 191q10 94 23 164q-217 -108 -440 -148q6 -69 20 -250q12 -138 12 -299q0 -157 -67.5 -270t-183.5 -168t-267 -55v168
q153 0 253 86.5t100 246.5q0 246 -56 672l21 25q184 16 322.5 59.5t301.5 122.5zM836 1300l157 158l156 -158l-156 -153zM502 1300l153 158l158 -158l-156 -153zM702 1548l123 125l125 -125l-123 -123z" />
    <glyph glyph-name="uniFC77" unicode="&#xfc77;" horiz-adv-x="1234" arabic-form="final" 
d="M911 940l162 -90q-49 -217 -49 -385q0 -147 49.5 -214t161.5 -67q20 0 20 -20v-141q0 -23 -20 -23q-184 0 -278.5 101t-94.5 294q0 78 10 191q10 94 23 164q-217 -108 -440 -148q6 -69 20 -250q12 -138 12 -299q0 -157 -67.5 -270t-183.5 -168t-267 -55v168
q153 0 253 86.5t100 246.5q0 246 -56 672l21 25q184 16 322.5 59.5t301.5 122.5zM139 1137l154 155l158 -155l-154 -154zM930 1300l157 158l156 -158l-156 -153zM596 1300l154 158l157 -158l-155 -153zM797 1548l123 125l124 -125l-122 -123z" />
    <glyph glyph-name="uniFC79" unicode="&#xfc79;" horiz-adv-x="1921" arabic-form="final" 
d="M1597 940l162 -90q-47 -208 -47 -385q0 -148 48.5 -214.5t160.5 -66.5q21 0 21 -20v-141q0 -23 -21 -23q-184 0 -278.5 101t-94.5 294q0 66 11 191q9 85 24 166q-108 -57 -217 -93q-111 -38 -223 -57l20 -190q8 -96 8 -209q0 -141 -35 -257t-105 -203t-182.5 -135
t-258.5 -48q-242 0 -375 144.5t-133 412.5q0 118 22 220.5t70 246.5h164q-92 -237 -92 -437q0 -193 88 -298t272 -105q206 0 300.5 110.5t94.5 348.5q0 174 -49 530l21 25q184 16 322.5 59.5t301.5 122.5zM1516 1272l157 158l156 -158l-156 -154zM1182 1272l153 158
l158 -158l-156 -154zM449 963l153 155l158 -155l-154 -154zM1382 1520l123 125l125 -125l-123 -123z" />
    <glyph glyph-name="uniFC7A" unicode="&#xfc7a;" horiz-adv-x="1851" arabic-form="final" 
d="M1442 993l145 -102q-59 -276 -59 -418q0 -139 86 -214t237 -75q21 0 21 -20v-141q0 -23 -21 -23q-222 0 -350.5 117.5t-128.5 333.5q0 69 10 174q7 65 31 180q-122 -9 -221 -33q-163 -39 -255.5 -109.5t-92.5 -148.5q0 -51 31.5 -86.5t132.5 -103.5l90 -60
q113 -72 162 -146.5t49 -164.5q0 -176 -159 -284.5t-437 -108.5q-196 0 -335 58t-217.5 184t-78.5 315q0 118 22 220.5t70 246.5h164q-92 -237 -92 -437q0 -206 129 -305.5t405 -99.5q165 0 265 53.5t100 136.5q0 40 -37 80.5t-121 98.5l-94 63q-117 79 -166 151t-49 171
q0 188 191.5 322.5t572.5 174.5zM1354 1280l157 158l156 -158l-156 -154zM1020 1280l154 158l157 -158l-155 -154zM1221 1528l122 125l125 -125l-122 -123z" />
    <glyph glyph-name="uniFC7B" unicode="&#xfc7b;" horiz-adv-x="1851" arabic-form="final" 
d="M1442 993l145 -102q-59 -276 -59 -418q0 -139 86 -214t237 -75q21 0 21 -20v-141q0 -23 -21 -23q-222 0 -350.5 117.5t-128.5 333.5q0 69 10 174q7 65 31 180q-122 -9 -221 -33q-163 -39 -255.5 -109.5t-92.5 -148.5q0 -51 31.5 -86.5t132.5 -103.5l90 -60
q113 -72 162 -146.5t49 -164.5q0 -176 -159 -284.5t-437 -108.5q-196 0 -335 58t-217.5 184t-78.5 315q0 118 22 220.5t70 246.5h164q-92 -237 -92 -437q0 -206 129 -305.5t405 -99.5q165 0 265 53.5t100 136.5q0 40 -37 80.5t-121 98.5l-94 63q-117 79 -166 151t-49 171
q0 188 191.5 322.5t572.5 174.5zM1354 1280l157 158l156 -158l-156 -154zM1020 1280l154 158l157 -158l-155 -154zM1221 1528l122 125l125 -125l-122 -123zM526 -713l154 154l156 -150l153 150l156 -154l-156 -155l-153 151l-154 -151z" />
    <glyph glyph-name="uniFC83" unicode="&#xfc83;" horiz-adv-x="3047" arabic-form="final" 
d="M2540 1628h260v-8l-754 -598l356 -156q418 -181 418 -456q0 -185 -146 -297.5t-393 -112.5h-448h-4q-221 0 -339 115.5t-118 335.5q0 69 10 174q7 65 31 180q-122 -9 -221 -33q-163 -39 -255.5 -109.5t-92.5 -148.5q0 -51 31.5 -86.5t132.5 -103.5l90 -60
q113 -72 162 -146.5t49 -164.5q0 -176 -159 -284.5t-437 -108.5q-196 0 -335 58t-217.5 184t-78.5 315q0 118 22 220.5t70 246.5h164q-92 -237 -92 -437q0 -206 129 -305.5t405 -99.5q165 0 265 53.5t100 136.5q0 40 -37 80.5t-121 98.5l-94 63q-117 79 -166 151t-49 171
q0 188 191.5 322.5t572.5 174.5l145 -114q-59 -276 -59 -406q0 -289 301 -289h4h465q151 0 249.5 61.5t98.5 155.5q0 85 -75.5 155t-254.5 149l-491 217v139zM2648 190l90 103q83 -63 149 -86t160 -23q21 0 21 -20v-141q0 -23 -21 -23q-117 0 -209 43t-190 147z" />
    <glyph glyph-name="uniFC84" unicode="&#xfc84;" horiz-adv-x="3047" arabic-form="final" 
d="M2540 1628h260v-8l-754 -598l356 -156q418 -181 418 -456q0 -185 -146 -297.5t-393 -112.5h-448h-4q-221 0 -339 115.5t-118 335.5q0 69 10 174q7 65 31 180q-122 -9 -221 -33q-163 -39 -255.5 -109.5t-92.5 -148.5q0 -51 31.5 -86.5t132.5 -103.5l90 -60
q113 -72 162 -146.5t49 -164.5q0 -176 -159 -284.5t-437 -108.5q-196 0 -335 58t-217.5 184t-78.5 315q0 118 22 220.5t70 246.5h164q-92 -237 -92 -437q0 -206 129 -305.5t405 -99.5q165 0 265 53.5t100 136.5q0 40 -37 80.5t-121 98.5l-94 63q-117 79 -166 151t-49 171
q0 188 191.5 322.5t572.5 174.5l145 -114q-59 -276 -59 -406q0 -289 301 -289h4h465q151 0 249.5 61.5t98.5 155.5q0 85 -75.5 155t-254.5 149l-491 217v139zM2648 190l90 103q83 -63 149 -86t160 -23q21 0 21 -20v-141q0 -23 -21 -23q-117 0 -209 43t-190 147zM526 -713
l154 154l156 -150l153 150l156 -154l-156 -155l-153 151l-154 -151z" />
    <glyph glyph-name="uniFC87" unicode="&#xfc87;" horiz-adv-x="1830" arabic-form="final" 
d="M1411 1485h174v-1088q0 -111 56.5 -162t187.5 -51q20 0 20 -20v-141q0 -23 -20 -23q-212 0 -316 104q-15 15 -22 27l-21 -20q-33 -33 -75 -58l-29 -16q-85 -220 -258 -346q-177 -131 -467 -131q-269 0 -414 141t-145 416q0 118 22 220.5t70 246.5h164q-92 -237 -92 -437
q0 -208 107.5 -305.5t326.5 -97.5q205 0 348 90q100 65 156 166h-4h-308l31 184h277q80 0 153 29q56 22 92 53q-14 55 -14 125v1094zM483 -692l154 153l156 -149l153 149l156 -153l-156 -156l-153 152l-154 -152z" />
    <glyph glyph-name="uniFC8A" unicode="&#xfc8a;" horiz-adv-x="1234" arabic-form="final" 
d="M911 940l162 -90q-49 -217 -49 -385q0 -147 49.5 -214t161.5 -67q20 0 20 -20v-141q0 -23 -20 -23q-184 0 -278.5 101t-94.5 294q0 78 10 191q10 94 23 164q-217 -108 -440 -148q6 -69 20 -250q12 -138 12 -299q0 -157 -67.5 -270t-183.5 -168t-267 -55v168
q153 0 253 86.5t100 246.5q0 246 -56 672l21 25q184 16 322.5 59.5t301.5 122.5zM762 1298l153 156l158 -156l-153 -153z" />
    <glyph glyph-name="uniFC8B" unicode="&#xfc8b;" horiz-adv-x="1234" arabic-form="final" 
d="M911 940l162 -90q-49 -217 -49 -385q0 -147 49.5 -214t161.5 -67q20 0 20 -20v-141q0 -23 -20 -23q-184 0 -278.5 101t-94.5 294q0 78 10 191q10 94 23 164q-217 -108 -440 -148q6 -69 20 -250q12 -138 12 -299q0 -157 -67.5 -270t-183.5 -168t-267 -55v168
q153 0 253 86.5t100 246.5q0 246 -56 672l21 25q184 16 322.5 59.5t301.5 122.5zM139 1137l154 155l158 -155l-154 -154zM762 1298l153 156l158 -156l-153 -153z" />
    <glyph glyph-name="uniFC8D" unicode="&#xfc8d;" horiz-adv-x="1921" arabic-form="final" 
d="M1597 940l162 -90q-47 -208 -47 -385q0 -148 48.5 -214.5t160.5 -66.5q21 0 21 -20v-141q0 -23 -21 -23q-184 0 -278.5 101t-94.5 294q0 66 11 191q9 85 24 166q-108 -57 -217 -93q-111 -38 -223 -57l20 -190q8 -96 8 -209q0 -141 -35 -257t-105 -203t-182.5 -135
t-258.5 -48q-242 0 -375 144.5t-133 412.5q0 118 22 220.5t70 246.5h164q-92 -237 -92 -437q0 -193 88 -298t272 -105q206 0 300.5 110.5t94.5 348.5q0 174 -49 530l21 25q184 16 322.5 59.5t301.5 122.5zM1444 1323l153 156l158 -156l-153 -154zM449 963l153 155l158 -155
l-154 -154z" />
    <glyph glyph-name="uniFC8E" unicode="&#xfc8e;" horiz-adv-x="1851" arabic-form="final" 
d="M1442 993l145 -102q-59 -276 -59 -418q0 -139 86 -214t237 -75q21 0 21 -20v-141q0 -23 -21 -23q-222 0 -350.5 117.5t-128.5 333.5q0 69 10 174q7 65 31 180q-122 -9 -221 -33q-163 -39 -255.5 -109.5t-92.5 -148.5q0 -51 31.5 -86.5t132.5 -103.5l90 -60
q113 -72 162 -146.5t49 -164.5q0 -176 -159 -284.5t-437 -108.5q-196 0 -335 58t-217.5 184t-78.5 315q0 118 22 220.5t70 246.5h164q-92 -237 -92 -437q0 -206 129 -305.5t405 -99.5q165 0 265 53.5t100 136.5q0 40 -37 80.5t-121 98.5l-94 63q-117 79 -166 151t-49 171
q0 188 191.5 322.5t572.5 174.5zM1282 1374l154 156l157 -156l-153 -153z" />
    <glyph glyph-name="uniFC8F" unicode="&#xfc8f;" horiz-adv-x="1851" arabic-form="final" 
d="M1442 993l145 -102q-59 -276 -59 -418q0 -139 86 -214t237 -75q21 0 21 -20v-141q0 -23 -21 -23q-222 0 -350.5 117.5t-128.5 333.5q0 69 10 174q7 65 31 180q-122 -9 -221 -33q-163 -39 -255.5 -109.5t-92.5 -148.5q0 -51 31.5 -86.5t132.5 -103.5l90 -60
q113 -72 162 -146.5t49 -164.5q0 -176 -159 -284.5t-437 -108.5q-196 0 -335 58t-217.5 184t-78.5 315q0 118 22 220.5t70 246.5h164q-92 -237 -92 -437q0 -206 129 -305.5t405 -99.5q165 0 265 53.5t100 136.5q0 40 -37 80.5t-121 98.5l-94 63q-117 79 -166 151t-49 171
q0 188 191.5 322.5t572.5 174.5zM1282 1374l154 156l157 -156l-153 -153zM526 -713l154 154l156 -150l153 150l156 -154l-156 -155l-153 151l-154 -151z" />
    <glyph glyph-name="uniFC91" unicode="&#xfc91;" horiz-adv-x="1234" arabic-form="final" 
d="M911 940l162 -90q-49 -217 -49 -385q0 -147 49.5 -214t161.5 -67q20 0 20 -20v-141q0 -23 -20 -23q-184 0 -278.5 101t-94.5 294q0 78 10 191q10 94 23 164q-217 -108 -440 -148q6 -69 20 -250q12 -138 12 -299q0 -157 -67.5 -270t-183.5 -168t-267 -55v168
q153 0 253 86.5t100 246.5q0 246 -56 672l21 25q184 16 322.5 59.5t301.5 122.5zM500 -305l153 153l156 -149l154 149l155 -153l-155 -156l-154 152l-154 -152z" />
    <glyph glyph-name="uniFC92" unicode="&#xfc92;" horiz-adv-x="1234" arabic-form="final" 
d="M911 940l162 -90q-49 -217 -49 -385q0 -147 49.5 -214t161.5 -67q20 0 20 -20v-141q0 -23 -20 -23q-184 0 -278.5 101t-94.5 294q0 78 10 191q10 94 23 164q-217 -108 -440 -148q6 -69 20 -250q12 -138 12 -299q0 -157 -67.5 -270t-183.5 -168t-267 -55v168
q153 0 253 86.5t100 246.5q0 246 -56 672l21 25q184 16 322.5 59.5t301.5 122.5zM139 1137l154 155l158 -155l-154 -154zM500 -305l153 153l156 -149l154 149l155 -153l-155 -156l-154 152l-154 -152z" />
    <glyph glyph-name="uniFC94" unicode="&#xfc94;" horiz-adv-x="1921" arabic-form="final" 
d="M1597 940l162 -90q-47 -208 -47 -385q0 -148 48.5 -214.5t160.5 -66.5q21 0 21 -20v-141q0 -23 -21 -23q-184 0 -278.5 101t-94.5 294q0 66 11 191q9 85 24 166q-108 -57 -217 -93q-111 -38 -223 -57l20 -190q8 -96 8 -209q0 -141 -35 -257t-105 -203t-182.5 -135
t-258.5 -48q-242 0 -375 144.5t-133 412.5q0 118 22 220.5t70 246.5h164q-92 -237 -92 -437q0 -193 88 -298t272 -105q206 0 300.5 110.5t94.5 348.5q0 174 -49 530l21 25q184 16 322.5 59.5t301.5 122.5zM1190 -305l153 153l156 -149l154 149l155 -153l-155 -156l-154 152
l-153 -152zM449 963l153 155l158 -155l-154 -154z" />
    <glyph glyph-name="uniFCCC" unicode="&#xfccc;" horiz-adv-x="600" arabic-form="initial" 
d="M0 184q76 0 139 -8q47 -3 90 -12l-4 26q-14 85 -14 183v1112h174v-1356l74 -33q92 -42 172 -96l-84 -158q-87 21 -158 56q-57 26 -102 63q-65 19 -144 29q-98 10 -143 10q-20 0 -20 20v142q0 22 20 22z" />
    <glyph glyph-name="uniFCFB" unicode="&#xfcfb;" horiz-adv-x="2998" arabic-form="isolated" 
d="M2650 993h174q62 -425 62 -606q0 -176 -109.5 -281.5t-288.5 -105.5q-94 0 -194 35q-69 24 -166 82q-47 -47 -94 -70q-96 -47 -217 -47q-208 0 -326.5 116.5t-118.5 334.5q0 69 10 174q7 65 31 180q-122 -9 -221 -33q-163 -39 -255.5 -109.5t-92.5 -148.5
q0 -51 31.5 -86.5t132.5 -103.5l90 -60q113 -72 162 -146.5t49 -164.5q0 -176 -159 -284.5t-437 -108.5q-196 0 -335 58t-217.5 184t-78.5 315q0 118 22 220.5t70 246.5h164q-92 -237 -92 -437q0 -206 129 -305.5t405 -99.5q165 0 265 53.5t100 136.5q0 40 -37 80.5
t-121 98.5l-94 63q-117 79 -166 151t-49 171q0 188 191.5 322.5t572.5 174.5l145 -102q-59 -276 -59 -418q0 -140 73.5 -214.5t210.5 -74.5q100 0 152.5 26.5t83.5 84.5q28 61 40.5 166t12.5 297h162q0 -217 -20 -348q-16 -94 -39 -162q78 -33 112 -43q74 -21 152 -21
q248 0 248 209q0 168 -66 600z" />
    <glyph glyph-name="uniFCFC" unicode="&#xfcfc;" horiz-adv-x="2998" arabic-form="isolated" 
d="M2650 993h174q62 -425 62 -606q0 -176 -109.5 -281.5t-288.5 -105.5q-94 0 -194 35q-69 24 -166 82q-47 -47 -94 -70q-96 -47 -217 -47q-208 0 -326.5 116.5t-118.5 334.5q0 69 10 174q7 65 31 180q-122 -9 -221 -33q-163 -39 -255.5 -109.5t-92.5 -148.5
q0 -51 31.5 -86.5t132.5 -103.5l90 -60q113 -72 162 -146.5t49 -164.5q0 -176 -159 -284.5t-437 -108.5q-196 0 -335 58t-217.5 184t-78.5 315q0 118 22 220.5t70 246.5h164q-92 -237 -92 -437q0 -206 129 -305.5t405 -99.5q165 0 265 53.5t100 136.5q0 40 -37 80.5
t-121 98.5l-94 63q-117 79 -166 151t-49 171q0 188 191.5 322.5t572.5 174.5l145 -102q-59 -276 -59 -418q0 -140 73.5 -214.5t210.5 -74.5q100 0 152.5 26.5t83.5 84.5q28 61 40.5 166t12.5 297h162q0 -217 -20 -348q-16 -94 -39 -162q78 -33 112 -43q74 -21 152 -21
q248 0 248 209q0 168 -66 600zM526 -713l154 154l156 -150l153 150l156 -154l-156 -155l-153 151l-154 -151z" />
    <glyph glyph-name="uniFCFD" unicode="&#xfcfd;" horiz-adv-x="2998" arabic-form="isolated" 
d="M2650 993h174q62 -425 62 -606q0 -176 -109.5 -281.5t-288.5 -105.5q-94 0 -194 35q-69 24 -166 82q-47 -47 -94 -70q-96 -47 -217 -47q-208 0 -326.5 116.5t-118.5 334.5q0 69 10 174q7 65 31 180q-122 -9 -221 -33q-163 -39 -255.5 -109.5t-92.5 -148.5
q0 -51 31.5 -86.5t132.5 -103.5l90 -60q113 -72 162 -146.5t49 -164.5q0 -176 -159 -284.5t-437 -108.5q-196 0 -335 58t-217.5 184t-78.5 315q0 118 22 220.5t70 246.5h164q-92 -237 -92 -437q0 -206 129 -305.5t405 -99.5q165 0 265 53.5t100 136.5q0 40 -37 80.5
t-121 98.5l-94 63q-117 79 -166 151t-49 171q0 188 191.5 322.5t572.5 174.5l145 -102q-59 -276 -59 -418q0 -140 73.5 -214.5t210.5 -74.5q100 0 152.5 26.5t83.5 84.5q28 61 40.5 166t12.5 297h162q0 -217 -20 -348q-16 -94 -39 -162q78 -33 112 -43q74 -21 152 -21
q248 0 248 209q0 168 -66 600zM2208 1122l157 158l156 -158l-156 -153zM1874 1122l154 158l157 -158l-155 -153zM2075 1370l123 125l124 -125l-122 -123z" />
    <glyph glyph-name="uniFCFE" unicode="&#xfcfe;" horiz-adv-x="2998" arabic-form="isolated" 
d="M2650 993h174q62 -425 62 -606q0 -176 -109.5 -281.5t-288.5 -105.5q-94 0 -194 35q-69 24 -166 82q-47 -47 -94 -70q-96 -47 -217 -47q-208 0 -326.5 116.5t-118.5 334.5q0 69 10 174q7 65 31 180q-122 -9 -221 -33q-163 -39 -255.5 -109.5t-92.5 -148.5
q0 -51 31.5 -86.5t132.5 -103.5l90 -60q113 -72 162 -146.5t49 -164.5q0 -176 -159 -284.5t-437 -108.5q-196 0 -335 58t-217.5 184t-78.5 315q0 118 22 220.5t70 246.5h164q-92 -237 -92 -437q0 -206 129 -305.5t405 -99.5q165 0 265 53.5t100 136.5q0 40 -37 80.5
t-121 98.5l-94 63q-117 79 -166 151t-49 171q0 188 191.5 322.5t572.5 174.5l145 -102q-59 -276 -59 -418q0 -140 73.5 -214.5t210.5 -74.5q100 0 152.5 26.5t83.5 84.5q28 61 40.5 166t12.5 297h162q0 -217 -20 -348q-16 -94 -39 -162q78 -33 112 -43q74 -21 152 -21
q248 0 248 209q0 168 -66 600zM526 -713l154 154l156 -150l153 150l156 -154l-156 -155l-153 151l-154 -151zM2191 1122l158 158l156 -158l-156 -153zM1858 1122l153 158l158 -158l-156 -153zM2058 1370l123 125l125 -125l-123 -123z" />
    <glyph glyph-name="uniFD05" unicode="&#xfd05;" horiz-adv-x="3063" arabic-form="isolated" 
d="M2540 1061q186 0 309 -123.5t123 -312.5q0 -284 -224 -454.5t-598 -170.5h-311q-226 0 -346.5 114t-120.5 337q0 69 10 174q7 65 31 180q-122 -9 -221 -33q-163 -39 -255.5 -109.5t-92.5 -148.5q0 -51 31.5 -86.5t132.5 -103.5l90 -60q113 -72 162 -146.5t49 -164.5
q0 -176 -159 -284.5t-437 -108.5q-196 0 -335 58t-217.5 184t-78.5 315q0 118 22 220.5t70 246.5h164q-92 -237 -92 -437q0 -206 129 -305.5t405 -99.5q165 0 265 53.5t100 136.5q0 40 -37 80.5t-121 98.5l-94 63q-117 79 -166 151t-49 171q0 188 191.5 322.5t572.5 174.5
l145 -102q-36 -165 -47.5 -247t-11.5 -171q0 -142 55 -209q179 219 330 387q150 166 260.5 256t192 122t174.5 32zM1819 184h307q303 0 486.5 112t183.5 300q0 118 -81 199.5t-200 81.5q-114 0 -230 -85.5t-309 -308.5q-84 -96 -245 -293q41 -6 88 -6z" />
    <glyph glyph-name="uniFD06" unicode="&#xfd06;" horiz-adv-x="3063" arabic-form="isolated" 
d="M2540 1061q186 0 309 -123.5t123 -312.5q0 -284 -224 -454.5t-598 -170.5h-311q-226 0 -346.5 114t-120.5 337q0 69 10 174q7 65 31 180q-122 -9 -221 -33q-163 -39 -255.5 -109.5t-92.5 -148.5q0 -51 31.5 -86.5t132.5 -103.5l90 -60q113 -72 162 -146.5t49 -164.5
q0 -176 -159 -284.5t-437 -108.5q-196 0 -335 58t-217.5 184t-78.5 315q0 118 22 220.5t70 246.5h164q-92 -237 -92 -437q0 -206 129 -305.5t405 -99.5q165 0 265 53.5t100 136.5q0 40 -37 80.5t-121 98.5l-94 63q-117 79 -166 151t-49 171q0 188 191.5 322.5t572.5 174.5
l145 -102q-36 -165 -47.5 -247t-11.5 -171q0 -142 55 -209q179 219 330 387q150 166 260.5 256t192 122t174.5 32zM1819 184h307q303 0 486.5 112t183.5 300q0 118 -81 199.5t-200 81.5q-114 0 -230 -85.5t-309 -308.5q-84 -96 -245 -293q41 -6 88 -6zM526 -713l154 154
l156 -150l153 150l156 -154l-156 -155l-153 151l-154 -151z" />
    <glyph glyph-name="uniFD07" unicode="&#xfd07;" horiz-adv-x="3063" arabic-form="isolated" 
d="M2540 1061q186 0 309 -123.5t123 -312.5q0 -284 -224 -454.5t-598 -170.5h-311q-226 0 -346.5 114t-120.5 337q0 69 10 174q7 65 31 180q-122 -9 -221 -33q-163 -39 -255.5 -109.5t-92.5 -148.5q0 -51 31.5 -86.5t132.5 -103.5l90 -60q113 -72 162 -146.5t49 -164.5
q0 -176 -159 -284.5t-437 -108.5q-196 0 -335 58t-217.5 184t-78.5 315q0 118 22 220.5t70 246.5h164q-92 -237 -92 -437q0 -206 129 -305.5t405 -99.5q165 0 265 53.5t100 136.5q0 40 -37 80.5t-121 98.5l-94 63q-117 79 -166 151t-49 171q0 188 191.5 322.5t572.5 174.5
l145 -102q-36 -165 -47.5 -247t-11.5 -171q0 -142 55 -209q179 219 330 387q150 166 260.5 256t192 122t174.5 32zM1819 184h307q303 0 486.5 112t183.5 300q0 118 -81 199.5t-200 81.5q-114 0 -230 -85.5t-309 -308.5q-84 -96 -245 -293q41 -6 88 -6zM1915 1305l153 155
l158 -155l-153 -154z" />
    <glyph glyph-name="uniFD08" unicode="&#xfd08;" horiz-adv-x="3063" arabic-form="isolated" 
d="M2540 1061q186 0 309 -123.5t123 -312.5q0 -284 -224 -454.5t-598 -170.5h-311q-226 0 -346.5 114t-120.5 337q0 69 10 174q7 65 31 180q-122 -9 -221 -33q-163 -39 -255.5 -109.5t-92.5 -148.5q0 -51 31.5 -86.5t132.5 -103.5l90 -60q113 -72 162 -146.5t49 -164.5
q0 -176 -159 -284.5t-437 -108.5q-196 0 -335 58t-217.5 184t-78.5 315q0 118 22 220.5t70 246.5h164q-92 -237 -92 -437q0 -206 129 -305.5t405 -99.5q165 0 265 53.5t100 136.5q0 40 -37 80.5t-121 98.5l-94 63q-117 79 -166 151t-49 171q0 188 191.5 322.5t572.5 174.5
l145 -102q-36 -165 -47.5 -247t-11.5 -171q0 -142 55 -209q179 219 330 387q150 166 260.5 256t192 122t174.5 32zM1819 184h307q303 0 486.5 112t183.5 300q0 118 -81 199.5t-200 81.5q-114 0 -230 -85.5t-309 -308.5q-84 -96 -245 -293q41 -6 88 -6zM526 -713l154 154
l156 -150l153 150l156 -154l-156 -155l-153 151l-154 -151zM1915 1305l153 155l158 -155l-153 -154z" />
    <glyph glyph-name="uniFD0D" unicode="&#xfd0d;" horiz-adv-x="2494" arabic-form="isolated" 
d="M944 1014h160q-80 -348 -80 -502q0 -169 71 -248.5t228 -79.5q89 0 140 26.5t81 84.5q28 61 40.5 166t12.5 297h162q0 -217 -20 -348q-16 -94 -39 -162q78 -33 112 -43q74 -21 152 -21q248 0 248 209q0 168 -66 600h174q62 -425 62 -606q0 -176 -109 -281.5t-288 -105.5
q-95 0 -195 35q-69 24 -166 82q-44 -47 -88 -70q-89 -47 -203 -47q-232 0 -350.5 124.5t-118.5 371.5q0 97 19 211l-68 -17q-181 -43 -274 -74q-72 -23 -84 -28l12 -121q18 -206 18 -414q0 -157 -67.5 -270t-183.5 -168t-267 -55v168q153 0 253 86.5t100 246.5
q0 262 -41 568l129 133q120 35 282 69q161 32 221 41zM1686 1122l157 158l156 -158l-156 -153zM1352 1122l153 158l158 -158l-156 -153zM1552 1370l123 125l125 -125l-123 -123z" />
    <glyph glyph-name="uniFD0E" unicode="&#xfd0e;" horiz-adv-x="2494" arabic-form="isolated" 
d="M944 1014h160q-80 -348 -80 -502q0 -169 71 -248.5t228 -79.5q89 0 140 26.5t81 84.5q28 61 40.5 166t12.5 297h162q0 -217 -20 -348q-16 -94 -39 -162q78 -33 112 -43q74 -21 152 -21q248 0 248 209q0 168 -66 600h174q62 -425 62 -606q0 -176 -109 -281.5t-288 -105.5
q-95 0 -195 35q-69 24 -166 82q-44 -47 -88 -70q-89 -47 -203 -47q-232 0 -350.5 124.5t-118.5 371.5q0 97 19 211l-68 -17q-181 -43 -274 -74q-72 -23 -84 -28l12 -121q18 -206 18 -414q0 -157 -67.5 -270t-183.5 -168t-267 -55v168q153 0 253 86.5t100 246.5
q0 262 -41 568l129 133q120 35 282 69q161 32 221 41z" />
    <glyph glyph-name="uniFD0F" unicode="&#xfd0f;" horiz-adv-x="2605" arabic-form="isolated" 
d="M2081 1061q186 0 309 -123.5t123 -312.5q0 -284 -224 -454.5t-597 -170.5h-246q-582 0 -582 496q0 97 19 211l-68 -17q-181 -43 -274 -74q-72 -23 -84 -28l12 -121q18 -206 18 -414q0 -157 -67.5 -270t-183.5 -168t-267 -55v168q153 0 253 86.5t100 246.5q0 262 -41 568
l129 133q120 35 282 69q161 32 221 41l31 142h160q-80 -348 -80 -502q0 -175 88 -252l6 -4q90 111 230 272q192 219 319 334t219 157t195 42zM1432 184h235q303 0 486.5 112t183.5 300q0 118 -81.5 199.5t-199.5 81.5q-113 0 -230 -87t-308 -309q-217 -255 -242 -286
q82 -11 156 -11z" />
    <glyph glyph-name="uniFD10" unicode="&#xfd10;" horiz-adv-x="2605" arabic-form="isolated" 
d="M2081 1061q186 0 309 -123.5t123 -312.5q0 -284 -224 -454.5t-597 -170.5h-246q-582 0 -582 496q0 97 19 211l-68 -17q-181 -43 -274 -74q-72 -23 -84 -28l12 -121q18 -206 18 -414q0 -157 -67.5 -270t-183.5 -168t-267 -55v168q153 0 253 86.5t100 246.5q0 262 -41 568
l129 133q120 35 282 69q161 32 221 41l31 142h160q-80 -348 -80 -502q0 -175 88 -252l6 -4q90 111 230 272q192 219 319 334t219 157t195 42zM1432 184h235q303 0 486.5 112t183.5 300q0 118 -81.5 199.5t-199.5 81.5q-113 0 -230 -87t-308 -309q-217 -255 -242 -286
q82 -11 156 -11zM1401 1284l153 156l158 -156l-153 -154z" />
    <glyph glyph-name="uniFD17" unicode="&#xfd17;" horiz-adv-x="3082" arabic-form="final" 
d="M2701 901h162v-143q0 -217 -20 -348q-12 -78 -33 -142q24 -17 43 -28q104 -56 233 -56q21 0 21 -20v-141q0 -23 -21 -23q-114 0 -207 41q-68 31 -137 92q-38 -50 -100 -86q-86 -47 -199 -47q-85 0 -176 31q-82 30 -160 78q-38 -38 -79 -62q-86 -47 -199 -47
q-221 0 -339 115.5t-118 335.5q0 69 10 174q7 65 31 180q-122 -9 -221 -33q-163 -39 -255.5 -109.5t-92.5 -148.5q0 -51 31.5 -86.5t132.5 -103.5l90 -60q113 -72 162 -146.5t49 -164.5q0 -176 -159 -284.5t-437 -108.5q-196 0 -335 58t-217.5 184t-78.5 315q0 118 22 220.5
t70 246.5h164q-92 -237 -92 -437q0 -206 129 -305.5t405 -99.5q165 0 265 53.5t100 136.5q0 40 -37 80.5t-121 98.5l-94 63q-117 79 -166 151t-49 171q0 188 191.5 322.5t572.5 174.5l145 -102q-59 -276 -59 -418t73 -215.5t218 -73.5q89 0 136.5 26.5t78.5 84.5
q28 61 40.5 166t12.5 297h162q0 -210 -21 -348q-15 -93 -43 -170q54 -24 103 -35q82 -21 145 -21q89 0 136.5 26.5t78.5 84.5q28 61 40.5 166t12.5 297v143z" />
    <glyph glyph-name="uniFD18" unicode="&#xfd18;" horiz-adv-x="3082" arabic-form="final" 
d="M2701 901h162v-143q0 -217 -20 -348q-12 -78 -33 -142q24 -17 43 -28q104 -56 233 -56q21 0 21 -20v-141q0 -23 -21 -23q-114 0 -207 41q-68 31 -137 92q-38 -50 -100 -86q-86 -47 -199 -47q-85 0 -176 31q-82 30 -160 78q-38 -38 -79 -62q-86 -47 -199 -47
q-221 0 -339 115.5t-118 335.5q0 69 10 174q7 65 31 180q-122 -9 -221 -33q-163 -39 -255.5 -109.5t-92.5 -148.5q0 -51 31.5 -86.5t132.5 -103.5l90 -60q113 -72 162 -146.5t49 -164.5q0 -176 -159 -284.5t-437 -108.5q-196 0 -335 58t-217.5 184t-78.5 315q0 118 22 220.5
t70 246.5h164q-92 -237 -92 -437q0 -206 129 -305.5t405 -99.5q165 0 265 53.5t100 136.5q0 40 -37 80.5t-121 98.5l-94 63q-117 79 -166 151t-49 171q0 188 191.5 322.5t572.5 174.5l145 -102q-59 -276 -59 -418t73 -215.5t218 -73.5q89 0 136.5 26.5t78.5 84.5
q28 61 40.5 166t12.5 297h162q0 -210 -21 -348q-15 -93 -43 -170q54 -24 103 -35q82 -21 145 -21q89 0 136.5 26.5t78.5 84.5q28 61 40.5 166t12.5 297v143zM526 -715l154 154l156 -150l153 150l156 -154l-156 -155l-153 151l-154 -151z" />
    <glyph glyph-name="uniFD19" unicode="&#xfd19;" horiz-adv-x="3082" arabic-form="final" 
d="M2701 901h162v-143q0 -217 -20 -348q-12 -78 -33 -142q24 -17 43 -28q104 -56 233 -56q21 0 21 -20v-141q0 -23 -21 -23q-114 0 -207 41q-68 31 -137 92q-38 -50 -100 -86q-86 -47 -199 -47q-85 0 -176 31q-82 30 -160 78q-38 -38 -79 -62q-86 -47 -199 -47
q-221 0 -339 115.5t-118 335.5q0 69 10 174q7 65 31 180q-122 -9 -221 -33q-163 -39 -255.5 -109.5t-92.5 -148.5q0 -51 31.5 -86.5t132.5 -103.5l90 -60q113 -72 162 -146.5t49 -164.5q0 -176 -159 -284.5t-437 -108.5q-196 0 -335 58t-217.5 184t-78.5 315q0 118 22 220.5
t70 246.5h164q-92 -237 -92 -437q0 -206 129 -305.5t405 -99.5q165 0 265 53.5t100 136.5q0 40 -37 80.5t-121 98.5l-94 63q-117 79 -166 151t-49 171q0 188 191.5 322.5t572.5 174.5l145 -102q-59 -276 -59 -418t73 -215.5t218 -73.5q89 0 136.5 26.5t78.5 84.5
q28 61 40.5 166t12.5 297h162q0 -210 -21 -348q-15 -93 -43 -170q54 -24 103 -35q82 -21 145 -21q89 0 136.5 26.5t78.5 84.5q28 61 40.5 166t12.5 297v143zM2175 1120l158 158l155 -158l-155 -153zM1841 1120l154 158l157 -158l-155 -153zM2042 1368l123 125l125 -125
l-123 -123z" />
    <glyph glyph-name="uniFD1A" unicode="&#xfd1a;" horiz-adv-x="3082" arabic-form="final" 
d="M2701 901h162v-143q0 -217 -20 -348q-12 -78 -33 -142q24 -17 43 -28q104 -56 233 -56q21 0 21 -20v-141q0 -23 -21 -23q-114 0 -207 41q-68 31 -137 92q-38 -50 -100 -86q-86 -47 -199 -47q-85 0 -176 31q-82 30 -160 78q-38 -38 -79 -62q-86 -47 -199 -47
q-221 0 -339 115.5t-118 335.5q0 69 10 174q7 65 31 180q-122 -9 -221 -33q-163 -39 -255.5 -109.5t-92.5 -148.5q0 -51 31.5 -86.5t132.5 -103.5l90 -60q113 -72 162 -146.5t49 -164.5q0 -176 -159 -284.5t-437 -108.5q-196 0 -335 58t-217.5 184t-78.5 315q0 118 22 220.5
t70 246.5h164q-92 -237 -92 -437q0 -206 129 -305.5t405 -99.5q165 0 265 53.5t100 136.5q0 40 -37 80.5t-121 98.5l-94 63q-117 79 -166 151t-49 171q0 188 191.5 322.5t572.5 174.5l145 -102q-59 -276 -59 -418t73 -215.5t218 -73.5q89 0 136.5 26.5t78.5 84.5
q28 61 40.5 166t12.5 297h162q0 -210 -21 -348q-15 -93 -43 -170q54 -24 103 -35q82 -21 145 -21q89 0 136.5 26.5t78.5 84.5q28 61 40.5 166t12.5 297v143zM526 -715l154 154l156 -150l153 150l156 -154l-156 -155l-153 151l-154 -151zM2169 1120l158 158l155 -158
l-155 -153zM1835 1120l154 158l157 -158l-155 -153zM2036 1368l123 125l125 -125l-123 -123z" />
    <glyph glyph-name="uniFD21" unicode="&#xfd21;" horiz-adv-x="3106" arabic-form="final" 
d="M2540 1061q186 0 309 -123.5t123 -312.5q0 -284 -224 -454.5t-598 -170.5h-311q-226 0 -346.5 114t-120.5 337q0 69 10 174q7 65 31 180q-122 -9 -221 -33q-163 -39 -255.5 -109.5t-92.5 -148.5q0 -51 31.5 -86.5t132.5 -103.5l90 -60q113 -72 162 -146.5t49 -164.5
q0 -176 -159 -284.5t-437 -108.5q-196 0 -335 58t-217.5 184t-78.5 315q0 118 22 220.5t70 246.5h164q-92 -237 -92 -437q0 -206 129 -305.5t405 -99.5q165 0 265 53.5t100 136.5q0 40 -37 80.5t-121 98.5l-94 63q-117 79 -166 151t-49 171q0 188 191.5 322.5t572.5 174.5
l145 -102q-36 -165 -47.5 -247t-11.5 -171q0 -142 55 -209q179 219 330 387q150 166 260.5 256t192 122t174.5 32zM1819 184h307q303 0 486.5 112t183.5 300q0 118 -81 199.5t-200 81.5q-114 0 -230 -85.5t-309 -308.5q-84 -96 -245 -293q41 -6 88 -6zM2707 190l91 103
q83 -63 149 -86t160 -23q20 0 20 -20v-141q0 -23 -20 -23q-117 0 -209.5 43t-190.5 147z" />
    <glyph glyph-name="uniFD22" unicode="&#xfd22;" horiz-adv-x="3106" arabic-form="final" 
d="M2540 1061q186 0 309 -123.5t123 -312.5q0 -284 -224 -454.5t-598 -170.5h-311q-226 0 -346.5 114t-120.5 337q0 69 10 174q7 65 31 180q-122 -9 -221 -33q-163 -39 -255.5 -109.5t-92.5 -148.5q0 -51 31.5 -86.5t132.5 -103.5l90 -60q113 -72 162 -146.5t49 -164.5
q0 -176 -159 -284.5t-437 -108.5q-196 0 -335 58t-217.5 184t-78.5 315q0 118 22 220.5t70 246.5h164q-92 -237 -92 -437q0 -206 129 -305.5t405 -99.5q165 0 265 53.5t100 136.5q0 40 -37 80.5t-121 98.5l-94 63q-117 79 -166 151t-49 171q0 188 191.5 322.5t572.5 174.5
l145 -102q-36 -165 -47.5 -247t-11.5 -171q0 -142 55 -209q179 219 330 387q150 166 260.5 256t192 122t174.5 32zM1819 184h307q303 0 486.5 112t183.5 300q0 118 -81 199.5t-200 81.5q-114 0 -230 -85.5t-309 -308.5q-84 -96 -245 -293q41 -6 88 -6zM2707 190l91 103
q83 -63 149 -86t160 -23q20 0 20 -20v-141q0 -23 -20 -23q-117 0 -209.5 43t-190.5 147zM526 -713l154 154l156 -150l153 150l156 -154l-156 -155l-153 151l-154 -151z" />
    <glyph glyph-name="uniFD23" unicode="&#xfd23;" horiz-adv-x="3106" arabic-form="final" 
d="M2540 1061q186 0 309 -123.5t123 -312.5q0 -284 -224 -454.5t-598 -170.5h-311q-226 0 -346.5 114t-120.5 337q0 69 10 174q7 65 31 180q-122 -9 -221 -33q-163 -39 -255.5 -109.5t-92.5 -148.5q0 -51 31.5 -86.5t132.5 -103.5l90 -60q113 -72 162 -146.5t49 -164.5
q0 -176 -159 -284.5t-437 -108.5q-196 0 -335 58t-217.5 184t-78.5 315q0 118 22 220.5t70 246.5h164q-92 -237 -92 -437q0 -206 129 -305.5t405 -99.5q165 0 265 53.5t100 136.5q0 40 -37 80.5t-121 98.5l-94 63q-117 79 -166 151t-49 171q0 188 191.5 322.5t572.5 174.5
l145 -102q-36 -165 -47.5 -247t-11.5 -171q0 -142 55 -209q179 219 330 387q150 166 260.5 256t192 122t174.5 32zM1819 184h307q303 0 486.5 112t183.5 300q0 118 -81 199.5t-200 81.5q-114 0 -230 -85.5t-309 -308.5q-84 -96 -245 -293q41 -6 88 -6zM2707 190l91 103
q83 -63 149 -86t160 -23q20 0 20 -20v-141q0 -23 -20 -23q-117 0 -209.5 43t-190.5 147zM1915 1305l153 155l158 -155l-153 -154z" />
    <glyph glyph-name="uniFD24" unicode="&#xfd24;" horiz-adv-x="3106" arabic-form="final" 
d="M2540 1061q186 0 309 -123.5t123 -312.5q0 -284 -224 -454.5t-598 -170.5h-311q-226 0 -346.5 114t-120.5 337q0 69 10 174q7 65 31 180q-122 -9 -221 -33q-163 -39 -255.5 -109.5t-92.5 -148.5q0 -51 31.5 -86.5t132.5 -103.5l90 -60q113 -72 162 -146.5t49 -164.5
q0 -176 -159 -284.5t-437 -108.5q-196 0 -335 58t-217.5 184t-78.5 315q0 118 22 220.5t70 246.5h164q-92 -237 -92 -437q0 -206 129 -305.5t405 -99.5q165 0 265 53.5t100 136.5q0 40 -37 80.5t-121 98.5l-94 63q-117 79 -166 151t-49 171q0 188 191.5 322.5t572.5 174.5
l145 -102q-36 -165 -47.5 -247t-11.5 -171q0 -142 55 -209q179 219 330 387q150 166 260.5 256t192 122t174.5 32zM1819 184h307q303 0 486.5 112t183.5 300q0 118 -81 199.5t-200 81.5q-114 0 -230 -85.5t-309 -308.5q-84 -96 -245 -293q41 -6 88 -6zM2707 190l91 103
q83 -63 149 -86t160 -23q20 0 20 -20v-141q0 -23 -20 -23q-117 0 -209.5 43t-190.5 147zM526 -713l154 154l156 -150l153 150l156 -154l-156 -155l-153 151l-154 -151zM1915 1305l153 155l158 -155l-153 -154z" />
    <glyph glyph-name="uniFD29" unicode="&#xfd29;" horiz-adv-x="2578" arabic-form="final" 
d="M944 1014h158q-80 -361 -80 -502q1 -171 73.5 -249.5t217.5 -78.5q89 0 137.5 26.5t79.5 84.5q28 61 40.5 166t12.5 297h160q0 -210 -21 -348q-15 -93 -43 -170q41 -19 105 -35q82 -21 145 -21q89 0 136.5 26.5t78.5 84.5q28 62 41 167t13 296v143h161v-143
q0 -217 -20 -348q-12 -78 -33 -142q24 -17 43 -28q104 -56 234 -56q20 0 20 -20v-141q0 -23 -20 -23q-114 0 -207 41q-70 32 -138 92q-38 -50 -100 -86q-86 -47 -199 -47q-85 0 -176 31q-78 28 -161 78q-37 -37 -80 -62q-83 -47 -199 -47q-221 0 -340 123.5t-119 372.5
q-2 85 15 211l-64 -17q-181 -43 -274 -74q-72 -23 -84 -28l12 -121q18 -206 18 -414q0 -157 -67.5 -270t-183.5 -168t-267 -55v168q153 0 253 86.5t100 246.5q0 262 -41 568l129 133q120 35 282 69q161 32 221 41zM1675 1120l158 158l156 -158l-156 -153zM1341 1120l154 158
l158 -158l-156 -153zM1542 1368l123 125l125 -125l-123 -123z" />
    <glyph glyph-name="uniFD2A" unicode="&#xfd2a;" horiz-adv-x="2578" arabic-form="final" 
d="M944 1014h158q-80 -361 -80 -502q1 -171 73.5 -249.5t217.5 -78.5q89 0 137.5 26.5t79.5 84.5q28 61 40.5 166t12.5 297h160q0 -210 -21 -348q-15 -93 -43 -170q41 -19 105 -35q82 -21 145 -21q89 0 136.5 26.5t78.5 84.5q28 62 41 167t13 296v143h161v-143
q0 -217 -20 -348q-12 -78 -33 -142q24 -17 43 -28q104 -56 234 -56q20 0 20 -20v-141q0 -23 -20 -23q-114 0 -207 41q-70 32 -138 92q-38 -50 -100 -86q-86 -47 -199 -47q-85 0 -176 31q-78 28 -161 78q-37 -37 -80 -62q-83 -47 -199 -47q-221 0 -340 123.5t-119 372.5
q-2 85 15 211l-64 -17q-181 -43 -274 -74q-72 -23 -84 -28l12 -121q18 -206 18 -414q0 -157 -67.5 -270t-183.5 -168t-267 -55v168q153 0 253 86.5t100 246.5q0 262 -41 568l129 133q120 35 282 69q161 32 221 41z" />
    <glyph glyph-name="uniFD2B" unicode="&#xfd2b;" horiz-adv-x="2635" arabic-form="final" 
d="M2081 1061q186 0 309 -123.5t123 -312.5q0 -284 -224 -454.5t-597 -170.5h-246q-582 0 -582 496q0 97 19 211l-68 -17q-181 -43 -274 -74q-72 -23 -84 -28l12 -121q18 -206 18 -414q0 -157 -67.5 -270t-183.5 -168t-267 -55v168q153 0 253 86.5t100 246.5q0 262 -41 568
l129 133q120 35 282 69q161 32 221 41l31 142h160q-80 -348 -80 -502q0 -175 88 -252l6 -4q90 111 230 272q192 219 319 334t219 157t195 42zM1432 184h235q303 0 486.5 112t183.5 300q0 118 -81.5 199.5t-199.5 81.5q-113 0 -230 -87t-308 -309q-217 -255 -242 -286
q82 -11 156 -11zM2236 190l91 103q83 -63 149 -86t160 -23q20 0 20 -20v-141q0 -23 -20 -23q-117 0 -209.5 43t-190.5 147z" />
    <glyph glyph-name="uniFD2C" unicode="&#xfd2c;" horiz-adv-x="2635" arabic-form="final" 
d="M2081 1061q186 0 309 -123.5t123 -312.5q0 -284 -224 -454.5t-597 -170.5h-246q-582 0 -582 496q0 97 19 211l-68 -17q-181 -43 -274 -74q-72 -23 -84 -28l12 -121q18 -206 18 -414q0 -157 -67.5 -270t-183.5 -168t-267 -55v168q153 0 253 86.5t100 246.5q0 262 -41 568
l129 133q120 35 282 69q161 32 221 41l31 142h160q-80 -348 -80 -502q0 -175 88 -252l6 -4q90 111 230 272q192 219 319 334t219 157t195 42zM1432 184h235q303 0 486.5 112t183.5 300q0 118 -81.5 199.5t-199.5 81.5q-113 0 -230 -87t-308 -309q-217 -255 -242 -286
q82 -11 156 -11zM2236 190l91 103q83 -63 149 -86t160 -23q20 0 20 -20v-141q0 -23 -20 -23q-117 0 -209.5 43t-190.5 147zM1401 1284l153 156l158 -156l-153 -154z" />
    <glyph glyph-name="uniFE82" unicode="&#x622;" horiz-adv-x="591" arabic-form="final" 
d="M174 1229h174v-832q0 -111 56.5 -162t187.5 -51q20 0 20 -20v-141q0 -23 -20 -23q-206 0 -312 103.5t-106 287.5v838zM119 1544q46 0 130 -38t130 -38q34 0 82.5 14.5t81.5 39.5l-2 -136q-67 -51 -158 -51q-47 0 -123.5 38t-116.5 38q-88 0 -100 -80h-113q0 92 50 152.5
t139 60.5z" />
    <glyph glyph-name="uniFE84" unicode="&#x623;" horiz-adv-x="591" arabic-form="final" 
d="M174 1229h174v-832q0 -111 56.5 -162t187.5 -51q20 0 20 -20v-141q0 -23 -20 -23q-206 0 -312 103.5t-106 287.5v838zM299 1464h223l-37 -123h-331q-79 0 -154 -24v119q57 19 82 22l61 6l-16 21q-31 48 -31 96q0 79 55.5 131.5t137.5 52.5q68 0 155 -41v-118
q-76 30 -129 30q-45 0 -73.5 -23.5t-28.5 -64.5q0 -35 27 -59q25 -22 59 -25z" />
    <glyph glyph-name="uniFE86" unicode="&#x624;" horiz-adv-x="1087" arabic-form="final" 
d="M543 973q177 0 285 -117t120 -324q0 -14 3.5 -86.5t4.5 -119.5l7 -142h124q21 0 21 -20v-141q0 -23 -21 -23h-126q-9 -72 -37 -139q-66 -145 -236 -223t-442 -78v168q273 0 413 90q110 72 134 182h-168q-249 0 -391 124.5t-142 350.5q0 216 126 357t325 141zM797 184
l-9 115l-14 213q-10 134 -73 205t-169 71q-117 0 -191.5 -87t-74.5 -218q0 -147 95 -223t276 -76h160zM580 1315h204l-45 -150h-256q-106 0 -217 -35v144q87 28 111 33l12 4l-8 6q-37 46 -37 104q0 84 59 140.5t156 56.5q71 0 150 -39v-137q-85 26 -140 26q-42 0 -70 -20.5
t-28 -54.5q0 -40 33 -60q27 -15 76 -18z" />
    <glyph glyph-name="uniFE88" unicode="&#x625;" horiz-adv-x="591" arabic-form="final" 
d="M174 1485h174v-1088q0 -111 56.5 -162t187.5 -51q20 0 20 -20v-141q0 -23 -20 -23q-206 0 -312 103.5t-106 287.5v1094zM299 -397h225l-37 -123h-331q-76 0 -154 -25v119q60 21 82 25q32 4 61 4l-18 22q-31 45 -31 94q0 79 55.5 131t137.5 52q72 0 155 -39v-119
q-85 31 -129 31t-73 -25t-29 -63q0 -34 29 -60q24 -21 57 -24z" />
    <glyph glyph-name="uniFE8A" unicode="&#x626;" horiz-adv-x="1390" arabic-form="final" 
d="M993 70v174q159 -37 235.5 -48.5t162.5 -11.5q20 0 20 -20v-141q0 -23 -20 -23h-19q-88 -202 -252 -313q-186 -127 -458 -127q-279 0 -429.5 141t-150.5 416q0 118 22 220.5t70 246.5h164q-92 -237 -92 -437q0 -209 111.5 -306t342.5 -97q146 0 266.5 50.5t198.5 150.5
q30 39 47 71q-176 42 -219 54zM1055 641h205l-46 -149h-256q-106 0 -217 -35v143q87 28 111 33l12 4l-8 6q-37 46 -37 105q0 84 59 140t156 56q71 0 150 -39v-137q-88 27 -140 27q-42 0 -70 -21t-28 -55q0 -40 33 -60q27 -15 76 -18z" />
    <glyph glyph-name="uniFE8B" unicode="&#x626;" horiz-adv-x="681" arabic-form="initial" 
d="M342 993h174q62 -434 62 -602q0 -184 -106 -287.5t-312 -103.5h-160q-20 0 -20 23v141q0 20 20 20h160q132 0 190 51.5t58 161.5q0 146 -66 596zM471 1253h205l-45 -149h-256q-106 0 -217 -35v143q88 29 110 33l13 4l-9 6q-36 45 -36 105q0 84 59 140t156 56
q72 0 149 -38v-138q-88 27 -139 27q-42 0 -70.5 -21t-28.5 -55q0 -39 33 -59q29 -16 76 -19z" />
    <glyph glyph-name="uniFE8C" unicode="&#x626;" horiz-adv-x="757" arabic-form="medial" 
d="M319 758h162q0 -197 -16 -338q-7 -59 -25 -127q71 -52 142 -78q85 -31 176 -31q20 0 20 -20v-141q0 -23 -20 -23q-199 0 -379 160q-51 -69 -129 -109q-99 -51 -250 -51q-20 0 -20 23v141q0 20 20 20q201 0 264 109q35 58 45 156t10 309zM455 1055h204l-45 -150h-256
q-106 0 -217 -35v144q87 28 111 33l12 4l-8 6q-37 46 -37 104q0 84 59 140.5t156 56.5q71 0 150 -39v-137q-85 26 -140 26q-42 0 -70 -20.5t-28 -54.5q0 -40 33 -60q27 -15 76 -18z" />
    <glyph glyph-name="uniFE8E" unicode="&#x627;" horiz-adv-x="591" arabic-form="final" 
d="M174 1485h174v-1088q0 -111 56.5 -162t187.5 -51q20 0 20 -20v-141q0 -23 -20 -23q-206 0 -312 103.5t-106 287.5v1094z" />
    <glyph glyph-name="uniFE90" unicode="&#x628;" horiz-adv-x="1714" arabic-form="final" 
d="M1360 758h160q0 -210 -21 -348q-15 -87 -39 -158l21 -12q104 -56 233 -56q21 0 21 -20v-141q0 -23 -21 -23q-114 0 -207 41q-65 30 -121 78q-41 -48 -88 -72q-65 -38 -161 -47h-9h-528q-248 0 -383 121t-135 348q0 164 61 432h164q-51 -251 -51 -389q0 -173 87.5 -250.5
t295.5 -77.5h475q141 3 193 111q28 61 40.5 166t12.5 297zM713 -303l153 153l158 -153l-154 -156z" />
    <glyph glyph-name="uniFE91" unicode="&#x628;" horiz-adv-x="530" arabic-form="initial" 
d="M182 993h174q62 -434 62 -602q0 -184 -106 -287.5t-312 -103.5q-20 0 -20 23v141q0 20 20 20q133 0 191.5 51.5t58.5 161.5q0 86 -14 205.5t-54 390.5zM47 -311l154 153l157 -153l-153 -156z" />
    <glyph glyph-name="uniFE92" unicode="&#x628;" horiz-adv-x="614" arabic-form="medial" 
d="M260 758h160q0 -210 -21 -348q-15 -87 -39 -158l21 -12q104 -56 233 -56q21 0 21 -20v-141q0 -23 -21 -23q-113 0 -206 41q-65 30 -121 78q-41 -48 -88 -72q-83 -47 -199 -47q-20 0 -20 23v141q0 20 20 20q152 0 207 111q28 61 40.5 166t12.5 297zM139 -315l154 153
l158 -153l-154 -156z" />
    <glyph glyph-name="uniFE94" unicode="&#x629;" horiz-adv-x="1097" arabic-form="final" 
d="M741 1102h174v-731q0 -96 41 -141.5t142 -45.5q20 0 20 -20v-141q0 -23 -20 -23q-180 0 -269 102q-69 -39 -153 -71q-88 -31 -180 -31q-184 0 -299 108.5t-115 284.5q0 67 18.5 132t59 131.5t113.5 127t173 107.5q122 56 295 80v131zM580 766q-153 -50 -238.5 -142.5
t-85.5 -215.5q0 -104 65.5 -164t178.5 -60q68 0 151 17q50 11 109 37q-19 68 -19 149v418q-83 -15 -161 -39zM424 1405l154 156l155 -152l154 152l155 -156l-155 -154l-154 150l-153 -150z" />
    <glyph glyph-name="uniFE96" unicode="&#x62a;" horiz-adv-x="1714" arabic-form="final" 
d="M1360 758h160q0 -210 -21 -348q-15 -87 -39 -158l21 -12q104 -56 233 -56q21 0 21 -20v-141q0 -23 -21 -23q-114 0 -207 41q-65 30 -121 78q-41 -48 -88 -72q-65 -37 -163 -47h-7h-28h-6h-494q-248 0 -383 121t-135 348q0 164 61 432h164q-51 -251 -51 -389
q0 -173 87.5 -250.5t295.5 -77.5h455h6q152 0 207 111q28 61 40.5 166t12.5 297zM606 1081l154 156l155 -152l154 152l156 -156l-156 -153l-154 149l-153 -149z" />
    <glyph glyph-name="uniFE97" unicode="&#x62a;" horiz-adv-x="763" arabic-form="initial" 
d="M342 993h174q62 -434 62 -602q0 -184 -106 -287.5t-312 -103.5h-160q-20 0 -20 23v141q0 20 20 20h160q132 0 190 51.5t58 161.5q0 146 -66 596zM94 1305l154 155l155 -151l154 151l156 -155l-156 -154l-154 149l-153 -149z" />
    <glyph glyph-name="uniFE98" unicode="&#x62a;" horiz-adv-x="757" arabic-form="medial" 
d="M319 758h162q0 -197 -16 -338q-7 -59 -25 -127q71 -52 142 -78q85 -31 176 -31q20 0 20 -20v-141q0 -23 -20 -23q-199 0 -379 160q-51 -69 -129 -109q-99 -51 -250 -51q-20 0 -20 23v141q0 20 20 20q201 0 264 109q35 58 45 156t10 309zM88 1081l154 156l155 -152
l154 152l156 -156l-156 -153l-154 149l-153 -149z" />
    <glyph glyph-name="uniFE9A" unicode="&#x62b;" horiz-adv-x="1714" arabic-form="final" 
d="M1360 758h160q0 -210 -21 -348q-15 -87 -39 -158l21 -12q104 -56 233 -56q21 0 21 -20v-141q0 -23 -21 -23q-114 0 -207 41q-65 30 -121 78q-41 -48 -88 -72q-65 -37 -163 -47h-7h-28h-6h-494q-248 0 -383 121t-135 348q0 164 61 432h164q-51 -251 -51 -389
q0 -173 87.5 -250.5t295.5 -77.5h455h6q152 0 207 111q28 61 40.5 166t12.5 297zM909 1081l158 158l156 -158l-156 -153zM575 1081l154 158l158 -158l-156 -153zM776 1329l123 125l125 -125l-123 -123z" />
    <glyph glyph-name="uniFE9B" unicode="&#x62b;" horiz-adv-x="778" arabic-form="initial" 
d="M342 993h174q62 -434 62 -602q0 -184 -106 -287.5t-312 -103.5h-160q-20 0 -20 23v141q0 20 20 20h160q132 0 190 51.5t58 161.5q0 146 -66 596zM414 1307l157 157l156 -157l-156 -154zM80 1307l153 157l158 -157l-155 -154zM281 1554l122 125l125 -125l-122 -122z" />
    <glyph glyph-name="uniFE9C" unicode="&#x62b;" horiz-adv-x="757" arabic-form="medial" 
d="M319 758h162q0 -197 -16 -338q-7 -59 -25 -127q71 -52 142 -78q85 -31 176 -31q20 0 20 -20v-141q0 -23 -20 -23q-199 0 -379 160q-51 -69 -129 -109q-99 -51 -250 -51q-20 0 -20 23v141q0 20 20 20q201 0 264 109q35 58 45 156t10 309zM401 1081l158 158l156 -158
l-156 -153zM68 1081l153 158l158 -158l-156 -153zM268 1329l123 125l125 -125l-123 -123z" />
    <glyph glyph-name="uniFE9E" unicode="&#x62c;" horiz-adv-x="1333" arabic-form="final" 
d="M399 1102q77 0 153.5 -34.5t150 -90.5t148.5 -117t179.5 -126t212.5 -105l-47 -174q-39 0 -113 -4v-107q0 -160 250 -160q21 0 21 -20v-141q0 -23 -21 -23q-183 0 -281 79t-98 236v121q-39 -7 -106 -22q-166 -39 -298.5 -109t-212 -169.5t-79.5 -209.5q0 -150 109 -227.5
t307 -77.5t467 76v-164q-154 -54 -260 -75t-217 -21q-279 0 -430.5 120.5t-151.5 352.5q0 205 149.5 362.5t419.5 241.5q133 44 312 66q-74 41 -125 79q-27 21 -80.5 64t-79.5 63.5t-70 51t-74 44.5t-69 25t-76 11q-104 0 -246 -50v164q48 30 119.5 50t136.5 20zM578 12
l153 154l158 -154l-154 -155z" />
    <glyph glyph-name="uniFE9F" unicode="&#x62c;" horiz-adv-x="1247" arabic-form="initial" 
d="M387 973q77 0 150 -29.5t141 -79.5t138 -104t171 -114.5t209 -100.5l-47 -174q-98 -19 -183 -50.5t-145 -65t-120 -70.5t-124.5 -69.5t-141.5 -58.5t-187 -41.5t-246 -15.5q-22 0 -22 23v141q0 20 22 20q130 0 238 14.5t196.5 43.5t147.5 55t144 69t134 64q56 25 96 39
q-90 47 -155 92q-23 17 -76 57.5t-74.5 56.5t-64.5 43.5t-70.5 38.5t-65.5 21t-75 10q-107 0 -246 -49v164q48 30 119.5 50t136.5 20zM371 -307l153 153l158 -153l-154 -156z" />
    <glyph glyph-name="uniFEA0" unicode="&#x62c;" horiz-adv-x="1292" arabic-form="medial" 
d="M387 973q77 0 150 -29.5t141 -79.5t138 -104t171 -114.5t209 -100.5l-47 -174q-28 -5 -94 -23q0 -79 54.5 -121.5t182.5 -42.5q21 0 21 -20v-141q0 -23 -21 -23q-190 0 -278 88q-80 83 -86 217q-101 -44 -150 -72q-23 -13 -79 -47t-83.5 -49t-82.5 -41.5t-101.5 -39.5
t-113.5 -28.5t-145.5 -21.5t-170.5 -6q-22 0 -22 23v141q0 20 22 20q130 0 238 14.5t196.5 43.5t147.5 55t144 69t134 64q56 25 96 39q-90 47 -155 92q-23 17 -76 57.5t-74.5 56.5t-64.5 43.5t-70.5 38.5t-65.5 21t-75 10q-107 0 -246 -49v164q48 30 119.5 50t136.5 20z
M371 -309l153 153l158 -153l-154 -156z" />
    <glyph glyph-name="uniFEA2" unicode="&#x62d;" horiz-adv-x="1333" arabic-form="final" 
d="M399 1102q77 0 153.5 -34.5t150 -90.5t148.5 -117t179.5 -126t212.5 -105l-47 -174q-39 0 -113 -4v-107q0 -160 250 -160q21 0 21 -20v-141q0 -23 -21 -23q-183 0 -281 79t-98 236v121q-39 -7 -106 -22q-166 -39 -298.5 -109t-212 -169.5t-79.5 -209.5q0 -150 109 -227.5
t307 -77.5t467 76v-164q-154 -54 -260 -75t-217 -21q-279 0 -430.5 120.5t-151.5 352.5q0 205 149.5 362.5t419.5 241.5q133 44 312 66q-74 41 -125 79q-27 21 -80.5 64t-79.5 63.5t-70 51t-74 44.5t-69 25t-76 11q-104 0 -246 -50v164q48 30 119.5 50t136.5 20z" />
    <glyph glyph-name="uniFEA3" unicode="&#x62d;" horiz-adv-x="1247" arabic-form="initial" 
d="M387 973q77 0 150 -29.5t141 -79.5t138 -104t171 -114.5t209 -100.5l-47 -174q-98 -19 -183 -50.5t-145 -65t-120 -70.5t-124.5 -69.5t-141.5 -58.5t-187 -41.5t-246 -15.5q-22 0 -22 23v141q0 20 22 20q130 0 238 14.5t196.5 43.5t147.5 55t144 69t134 64q56 25 96 39
q-90 47 -155 92q-23 17 -76 57.5t-74.5 56.5t-64.5 43.5t-70.5 38.5t-65.5 21t-75 10q-107 0 -246 -49v164q48 30 119.5 50t136.5 20z" />
    <glyph glyph-name="uniFEA4" unicode="&#x62d;" horiz-adv-x="1292" arabic-form="medial" 
d="M387 973q77 0 150 -29.5t141 -79.5t138 -104t171 -114.5t209 -100.5l-47 -174q-28 -5 -94 -23q0 -79 54.5 -121.5t182.5 -42.5q21 0 21 -20v-141q0 -23 -21 -23q-190 0 -278 88q-80 83 -86 217q-101 -44 -150 -72q-23 -13 -79 -47t-83.5 -49t-82.5 -41.5t-101.5 -39.5
t-113.5 -28.5t-145.5 -21.5t-170.5 -6q-22 0 -22 23v141q0 20 22 20q130 0 238 14.5t196.5 43.5t147.5 55t144 69t134 64q56 25 96 39q-90 47 -155 92q-23 17 -76 57.5t-74.5 56.5t-64.5 43.5t-70.5 38.5t-65.5 21t-75 10q-107 0 -246 -49v164q48 30 119.5 50t136.5 20z" />
    <glyph glyph-name="uniFEA6" unicode="&#x62e;" horiz-adv-x="1333" arabic-form="final" 
d="M399 1102q77 0 153.5 -34.5t150 -90.5t148.5 -117t179.5 -126t212.5 -105l-47 -174q-39 0 -113 -4v-107q0 -160 250 -160q21 0 21 -20v-141q0 -23 -21 -23q-183 0 -281 79t-98 236v121q-39 -7 -106 -22q-166 -39 -298.5 -109t-212 -169.5t-79.5 -209.5q0 -150 109 -227.5
t307 -77.5t467 76v-164q-154 -54 -260 -75t-217 -21q-279 0 -430.5 120.5t-151.5 352.5q0 205 149.5 362.5t419.5 241.5q133 44 312 66q-74 41 -125 79q-27 21 -80.5 64t-79.5 63.5t-70 51t-74 44.5t-69 25t-76 11q-104 0 -246 -50v164q48 30 119.5 50t136.5 20zM715 1282
l153 156l158 -156l-154 -154z" />
    <glyph glyph-name="uniFEA7" unicode="&#x62e;" horiz-adv-x="1247" arabic-form="initial" 
d="M387 973q77 0 150 -29.5t141 -79.5t138 -104t171 -114.5t209 -100.5l-47 -174q-98 -19 -183 -50.5t-145 -65t-120 -70.5t-124.5 -69.5t-141.5 -58.5t-187 -41.5t-246 -15.5q-22 0 -22 23v141q0 20 22 20q130 0 238 14.5t196.5 43.5t147.5 55t144 69t134 64q56 25 96 39
q-90 47 -155 92q-23 17 -76 57.5t-74.5 56.5t-64.5 43.5t-70.5 38.5t-65.5 21t-75 10q-107 0 -246 -49v164q48 30 119.5 50t136.5 20zM317 1298l154 156l158 -156l-154 -153z" />
    <glyph glyph-name="uniFEA8" unicode="&#x62e;" horiz-adv-x="1292" arabic-form="medial" 
d="M387 973q77 0 150 -29.5t141 -79.5t138 -104t171 -114.5t209 -100.5l-47 -174q-28 -5 -94 -23q0 -79 54.5 -121.5t182.5 -42.5q21 0 21 -20v-141q0 -23 -21 -23q-190 0 -278 88q-80 83 -86 217q-101 -44 -150 -72q-23 -13 -79 -47t-83.5 -49t-82.5 -41.5t-101.5 -39.5
t-113.5 -28.5t-145.5 -21.5t-170.5 -6q-22 0 -22 23v141q0 20 22 20q130 0 238 14.5t196.5 43.5t147.5 55t144 69t134 64q56 25 96 39q-90 47 -155 92q-23 17 -76 57.5t-74.5 56.5t-64.5 43.5t-70.5 38.5t-65.5 21t-75 10q-107 0 -246 -49v164q48 30 119.5 50t136.5 20z
M317 1298l154 156l158 -156l-154 -153z" />
    <glyph glyph-name="uniFEAA" unicode="&#x62f;" horiz-adv-x="1060" arabic-form="final" 
d="M31 70v174q123 -35 202 -47.5t168 -12.5q171 0 310 43q-37 72 -54 129q-86 273 -151 637h184q63 -409 131 -612q35 -104 91.5 -150.5t148.5 -46.5q20 0 20 -20v-141q0 -23 -20 -23q-158 0 -264 106q-76 -47 -179 -77q-110 -29 -217 -29q-103 0 -173 13.5t-197 56.5z" />
    <glyph glyph-name="uniFEAC" unicode="&#x630;" horiz-adv-x="1060" arabic-form="final" 
d="M31 70v174q123 -35 202 -47.5t168 -12.5q171 0 310 43q-37 72 -54 129q-86 273 -151 637h184q63 -409 131 -612q35 -104 91.5 -150.5t148.5 -46.5q20 0 20 -20v-141q0 -23 -20 -23q-158 0 -264 106q-76 -47 -179 -77q-110 -29 -217 -29q-103 0 -173 13.5t-197 56.5z
M434 1294l154 156l157 -156l-153 -153z" />
    <glyph glyph-name="uniFEAE" unicode="&#x631;" horiz-adv-x="698" arabic-form="final" 
d="M246 901h174q35 -263 45 -416l6 -75l8 -52q6 -56 25 -92.5t51.5 -53.5t64 -22.5t76.5 -5.5q21 0 21 -20v-141q0 -23 -21 -23q-127 0 -196 72l-13 16v-35q0 -237 -140.5 -365t-377.5 -128v168q159 0 256 85.5t97 247.5q0 300 -76 840z" />
    <glyph glyph-name="uniFEB0" unicode="&#x632;" horiz-adv-x="698" arabic-form="final" 
d="M246 901h174q35 -263 45 -416l6 -75l8 -52q6 -56 25 -92.5t51.5 -53.5t64 -22.5t76.5 -5.5q21 0 21 -20v-141q0 -23 -21 -23q-127 0 -196 72l-13 16v-35q0 -237 -140.5 -365t-377.5 -128v168q159 0 256 85.5t97 247.5q0 300 -76 840zM160 1214l153 156l158 -156
l-154 -153z" />
    <glyph glyph-name="uniFEB2" unicode="&#x633;" horiz-adv-x="2703" arabic-form="final" 
d="M926 901h174q30 -205 51 -375q17 -168 20 -278q56 -29 117 -43q82 -21 146 -21q89 0 136.5 26.5t78.5 84.5q28 61 40.5 166t12.5 297h162q0 -210 -21 -348q-15 -93 -43 -170q54 -24 103 -35q83 -21 145 -21q89 0 136.5 26.5t78.5 84.5q28 61 40.5 166t12.5 297v143h162
v-143q0 -217 -20 -348q-10 -66 -31 -140l47 -30q104 -56 233 -56q21 0 21 -20v-141q0 -23 -21 -23q-113 0 -206 41q-68 30 -140 96q-44 -57 -104 -90q-86 -47 -199 -47q-85 0 -176 31q-82 30 -160 78q-37 -37 -80 -62q-86 -47 -198 -47q-74 0 -166 29q-49 17 -115 49
q-10 -75 -26 -131q-54 -183 -191.5 -285t-355.5 -102q-242 0 -375 144.5t-133 412.5q0 118 22 220.5t70 246.5h164q-92 -237 -92 -437q0 -193 88 -298t272 -105q207 0 303.5 110.5t96.5 348.5q0 158 -70 627q-6 47 -10 71z" />
    <glyph glyph-name="uniFEB3" unicode="&#x633;" horiz-adv-x="1767" arabic-form="initial" 
d="M240 758h161q0 -217 -20 -348q-16 -100 -41 -164q49 -25 117 -41q83 -21 145 -21q89 0 136.5 26.5t78.5 84.5q28 61 40.5 166t12.5 297h162q0 -217 -20 -348q-16 -94 -39 -162q78 -33 112 -43q73 -21 152 -21q248 0 248 209q0 168 -66 600h174q62 -425 62 -606
q0 -176 -109.5 -281.5t-288.5 -105.5q-94 0 -194 35q-69 24 -166 82q-43 -47 -86 -70q-86 -47 -199 -47q-85 0 -176 31q-73 26 -172 84q-34 -40 -82 -68q-80 -47 -182 -47q-20 0 -20 23v141q0 20 20 20q132 0 186 111q28 62 41 167t13 296z" />
    <glyph glyph-name="uniFEB4" unicode="&#x633;" horiz-adv-x="1869" arabic-form="medial" 
d="M240 758h161q0 -217 -20 -348q-16 -100 -41 -164q49 -25 117 -41q83 -21 145 -21q89 0 136.5 26.5t78.5 84.5q28 61 40.5 166t12.5 297h162q0 -217 -20 -348q-15 -93 -43 -170q55 -25 102 -35q83 -21 146 -21q89 0 136.5 26.5t78.5 84.5q28 61 40.5 166t12.5 297v143h162
v-143q0 -210 -21 -348q-12 -78 -33 -142q24 -17 43 -28q104 -56 234 -56q20 0 20 -20v-141q0 -23 -20 -23q-114 0 -207 41q-68 31 -137 92q-37 -49 -101 -86q-86 -47 -198 -47q-85 0 -176 31q-82 30 -160 78q-37 -37 -80 -62q-86 -47 -199 -47q-85 0 -176 31q-73 26 -172 84
q-34 -40 -82 -68q-80 -47 -182 -47q-20 0 -20 23v141q0 20 20 20q132 0 186 111q28 62 41 167t13 296z" />
    <glyph glyph-name="uniFEB6" unicode="&#x634;" horiz-adv-x="2703" arabic-form="final" 
d="M926 901h174q30 -205 51 -375q17 -168 20 -278q56 -29 117 -43q82 -21 146 -21q89 0 136.5 26.5t78.5 84.5q28 61 40.5 166t12.5 297h162q0 -210 -21 -348q-15 -93 -43 -170q54 -24 103 -35q83 -21 145 -21q89 0 136.5 26.5t78.5 84.5q28 61 40.5 166t12.5 297v143h162
v-143q0 -217 -20 -348q-10 -66 -31 -140l47 -30q104 -56 233 -56q21 0 21 -20v-141q0 -23 -21 -23q-113 0 -206 41q-68 30 -140 96q-44 -57 -104 -90q-86 -47 -199 -47q-85 0 -176 31q-82 30 -160 78q-37 -37 -80 -62q-86 -47 -198 -47q-74 0 -166 29q-49 17 -115 49
q-10 -75 -26 -131q-54 -183 -191.5 -285t-355.5 -102q-242 0 -375 144.5t-133 412.5q0 118 22 220.5t70 246.5h164q-92 -237 -92 -437q0 -193 88 -298t272 -105q207 0 303.5 110.5t96.5 348.5q0 158 -70 627q-6 47 -10 71zM1782 1126l157 158l156 -158l-156 -153zM1448 1126
l154 158l157 -158l-155 -153zM1649 1374l123 125l124 -125l-122 -123z" />
    <glyph glyph-name="uniFEB7" unicode="&#x634;" horiz-adv-x="1767" arabic-form="initial" 
d="M240 758h161q0 -217 -20 -348q-16 -100 -41 -164q49 -25 117 -41q83 -21 145 -21q89 0 136.5 26.5t78.5 84.5q28 61 40.5 166t12.5 297h162q0 -217 -20 -348q-16 -94 -39 -162q78 -33 112 -43q73 -21 152 -21q248 0 248 209q0 168 -66 600h174q62 -425 62 -606
q0 -176 -109.5 -281.5t-288.5 -105.5q-94 0 -194 35q-69 24 -166 82q-43 -47 -86 -70q-86 -47 -199 -47q-85 0 -176 31q-73 26 -172 84q-34 -40 -82 -68q-80 -47 -182 -47q-20 0 -20 23v141q0 20 20 20q132 0 186 111q28 62 41 167t13 296zM963 1124l157 158l156 -158
l-156 -153zM629 1124l153 158l158 -158l-156 -153zM829 1372l123 125l125 -125l-123 -123z" />
    <glyph glyph-name="uniFEB8" unicode="&#x634;" horiz-adv-x="1869" arabic-form="medial" 
d="M240 758h161q0 -217 -20 -348q-16 -100 -41 -164q49 -25 117 -41q83 -21 145 -21q89 0 136.5 26.5t78.5 84.5q28 61 40.5 166t12.5 297h162q0 -217 -20 -348q-15 -93 -43 -170q55 -25 102 -35q83 -21 146 -21q89 0 136.5 26.5t78.5 84.5q28 61 40.5 166t12.5 297v143h162
v-143q0 -210 -21 -348q-12 -78 -33 -142q24 -17 43 -28q104 -56 234 -56q20 0 20 -20v-141q0 -23 -20 -23q-114 0 -207 41q-68 31 -137 92q-37 -49 -101 -86q-86 -47 -198 -47q-85 0 -176 31q-82 30 -160 78q-37 -37 -80 -62q-86 -47 -199 -47q-85 0 -176 31q-73 26 -172 84
q-34 -40 -82 -68q-80 -47 -182 -47q-20 0 -20 23v141q0 20 20 20q132 0 186 111q28 62 41 167t13 296zM950 1122l158 158l156 -158l-156 -153zM616 1122l154 158l158 -158l-156 -153zM817 1370l123 125l125 -125l-123 -123z" />
    <glyph glyph-name="uniFEBA" unicode="&#x635;" horiz-adv-x="2603" arabic-form="final" 
d="M926 901h174q30 -205 51 -375l6 -63q115 126 227 235q197 194 353 278.5t305 84.5q185 0 308.5 -124t123.5 -312q0 -139 -59 -254q-31 -60 -76 -111l31 -20q104 -56 233 -56q20 0 20 -20v-141q0 -23 -20 -23q-114 0 -207 41q-79 37 -166 121q-101 -73 -241 -117
q-145 -45 -338 -45q-190 0 -422 45l-70 12q-5 -51 -22 -110q-54 -183 -191.5 -285t-355.5 -102q-242 0 -375 144.5t-133 412.5q0 118 22 220.5t70 246.5h164q-92 -237 -92 -437q0 -193 88 -298t272 -105q207 0 303.5 110.5t96.5 348.5q0 158 -70 627q-6 47 -10 71zM1245 211
q204 -27 381 -27q300 0 486 115.5t186 296.5q0 118 -81 199.5t-200 81.5q-131 0 -268.5 -85t-329.5 -270q-38 -36 -250 -248q2 -18 2 -53q45 -8 74 -10z" />
    <glyph glyph-name="uniFEBB" unicode="&#x635;" horiz-adv-x="2041" arabic-form="initial" 
d="M326 758h157q-34 -303 -65 -439l-2 -2q7 -3 80 -28q18 -6 36 -15q210 249 340 385q152 160 267.5 247.5t198.5 116t180 28.5q186 0 309 -124t123 -313q0 -277 -224.5 -445.5t-597.5 -168.5q-354 0 -677 127q-48 17 -105 43q-43 -49 -86 -84q-116 -86 -260 -86
q-20 0 -20 23v141q0 20 20 20q111 0 172.5 40t91.5 136q44 139 62 398zM874 199q111 -15 230 -15q302 0 486 110.5t184 291.5q0 118 -81 199t-200 81q-117 0 -241 -82t-318 -292q-68 -72 -229 -263q86 -19 169 -30z" />
    <glyph glyph-name="uniFEBC" unicode="&#x635;" horiz-adv-x="2080" arabic-form="medial" 
d="M326 758h157q-34 -303 -65 -439l-2 -2q7 -3 80 -28q18 -6 36 -15q210 249 340 385q152 160 267.5 247.5t198.5 116t180 28.5q186 0 309 -124t123 -313q0 -277 -224.5 -445.5t-597.5 -168.5q-354 0 -677 127q-48 17 -105 43q-43 -49 -86 -84q-116 -86 -260 -86
q-20 0 -20 23v141q0 20 20 20q111 0 172.5 40t91.5 136q44 139 62 398zM874 199q111 -15 230 -15q302 0 486 110.5t184 291.5q0 118 -81 199t-200 81q-117 0 -241 -82t-318 -292q-68 -72 -229 -263q86 -19 169 -30zM1681 190l91 103q83 -63 149 -86t160 -23q20 0 20 -20
v-141q0 -23 -20 -23q-117 0 -209.5 43t-190.5 147z" />
    <glyph glyph-name="uniFEBE" unicode="&#x636;" horiz-adv-x="2603" arabic-form="final" 
d="M926 901h174q30 -205 51 -375l6 -63q115 126 227 235q197 194 353 278.5t305 84.5q185 0 308.5 -124t123.5 -312q0 -139 -59 -254q-31 -60 -76 -111l31 -20q104 -56 233 -56q20 0 20 -20v-141q0 -23 -20 -23q-114 0 -207 41q-79 37 -166 121q-101 -73 -241 -117
q-145 -45 -338 -45q-190 0 -422 45l-70 12q-5 -51 -22 -110q-54 -183 -191.5 -285t-355.5 -102q-242 0 -375 144.5t-133 412.5q0 118 22 220.5t70 246.5h164q-92 -237 -92 -437q0 -193 88 -298t272 -105q207 0 303.5 110.5t96.5 348.5q0 158 -70 627q-6 47 -10 71zM1245 211
q204 -27 381 -27q300 0 486 115.5t186 296.5q0 118 -81 199.5t-200 81.5q-131 0 -268.5 -85t-329.5 -270q-38 -36 -250 -248q2 -18 2 -53q45 -8 74 -10zM1419 1294l154 156l158 -156l-154 -153z" />
    <glyph glyph-name="uniFEBF" unicode="&#x636;" horiz-adv-x="2041" arabic-form="initial" 
d="M326 758h157q-34 -303 -65 -439l-2 -2q7 -3 80 -28q18 -6 36 -15q210 249 340 385q152 160 267.5 247.5t198.5 116t180 28.5q186 0 309 -124t123 -313q0 -277 -224.5 -445.5t-597.5 -168.5q-354 0 -677 127q-48 17 -105 43q-43 -49 -86 -84q-116 -86 -260 -86
q-20 0 -20 23v141q0 20 20 20q111 0 172.5 40t91.5 136q44 139 62 398zM874 199q111 -15 230 -15q302 0 486 110.5t184 291.5q0 118 -81 199t-200 81q-117 0 -241 -82t-318 -292q-68 -72 -229 -263q86 -19 169 -30zM807 1288l154 156l157 -156l-153 -153z" />
    <glyph glyph-name="uniFEC0" unicode="&#x636;" horiz-adv-x="2080" arabic-form="medial" 
d="M326 758h157q-34 -303 -65 -439l-2 -2q7 -3 80 -28q18 -6 36 -15q210 249 340 385q152 160 267.5 247.5t198.5 116t180 28.5q186 0 309 -124t123 -313q0 -277 -224.5 -445.5t-597.5 -168.5q-354 0 -677 127q-48 17 -105 43q-43 -49 -86 -84q-116 -86 -260 -86
q-20 0 -20 23v141q0 20 20 20q111 0 172.5 40t91.5 136q44 139 62 398zM874 199q111 -15 230 -15q302 0 486 110.5t184 291.5q0 118 -81 199t-200 81q-117 0 -241 -82t-318 -292q-68 -72 -229 -263q86 -19 169 -30zM1681 190l91 103q83 -63 149 -86t160 -23q20 0 20 -20
v-141q0 -23 -20 -23q-117 0 -209.5 43t-190.5 147zM807 1288l154 156l157 -156l-153 -153z" />
    <glyph glyph-name="uniFEC2" unicode="&#x637;" horiz-adv-x="1802" arabic-form="final" 
d="M375 1485h174v-584q0 -107 -21 -242q-6 -45 -22 -135q79 88 96 105q231 249 371 340.5t282 91.5q182 0 305 -124t123 -312q0 -278 -226.5 -451.5t-596.5 -173.5q-475 0 -829 88v174q153 -31 217 -39q51 63 127 150v1112zM836 184q300 0 485.5 115.5t185.5 296.5
q0 119 -79.5 200t-196.5 81q-112 0 -235 -90t-328 -316l-240 -268q211 -19 408 -19zM1403 190l90 103q83 -63 149 -86t160 -23q21 0 21 -20v-141q0 -23 -21 -23q-117 0 -209 43t-190 147z" />
    <glyph glyph-name="uniFEC3" unicode="&#x637;" horiz-adv-x="1622" arabic-form="initial" 
d="M231 1485h175v-584q0 -107 -21 -242l-25 -145q62 73 187 207q183 195 306 267.5t251 72.5q183 0 304.5 -123.5t121.5 -312.5q0 -278 -226.5 -451.5t-596.5 -173.5h-707q-20 0 -20 23v141q0 20 20 20h92l139 172v1129zM274 184h408q300 0 486 115.5t186 296.5
q0 118 -79.5 199.5t-195.5 81.5q-112 0 -239 -97.5t-338 -335.5z" />
    <glyph glyph-name="uniFEC4" unicode="&#x637;" horiz-adv-x="1650" arabic-form="medial" 
d="M231 1485h175v-584q0 -107 -21 -242l-25 -145q62 73 187 207q183 195 306 267.5t251 72.5q183 0 304.5 -123.5t121.5 -312.5q0 -278 -226.5 -451.5t-596.5 -173.5h-707q-20 0 -20 23v141q0 20 20 20h92l139 172v1129zM274 184h408q300 0 486 115.5t186 296.5
q0 118 -79.5 199.5t-195.5 81.5q-112 0 -239 -97.5t-338 -335.5zM1251 190l90 103q83 -63 149.5 -86t160.5 -23q20 0 20 -20v-141q0 -23 -20 -23q-117 0 -209.5 43t-190.5 147z" />
    <glyph glyph-name="uniFEC6" unicode="&#x638;" horiz-adv-x="1802" arabic-form="final" 
d="M375 1485h174v-584q0 -107 -21 -242q-6 -45 -22 -135q79 88 96 105q231 249 371 340.5t282 91.5q182 0 305 -124t123 -312q0 -278 -226.5 -451.5t-596.5 -173.5q-475 0 -829 88v174q153 -31 217 -39q51 63 127 150v1112zM836 184q300 0 485.5 115.5t185.5 296.5
q0 119 -79.5 200t-196.5 81q-112 0 -235 -90t-328 -316l-240 -268q211 -19 408 -19zM1403 190l90 103q83 -63 149 -86t160 -23q21 0 21 -20v-141q0 -23 -21 -23q-117 0 -209 43t-190 147zM737 1294l154 156l158 -156l-154 -153z" />
    <glyph glyph-name="uniFEC7" unicode="&#x638;" horiz-adv-x="1622" arabic-form="initial" 
d="M231 1485h175v-584q0 -107 -21 -242l-25 -145q62 73 187 207q183 195 306 267.5t251 72.5q183 0 304.5 -123.5t121.5 -312.5q0 -278 -226.5 -451.5t-596.5 -173.5h-707q-20 0 -20 23v141q0 20 20 20h92l139 172v1129zM274 184h408q300 0 486 115.5t186 296.5
q0 118 -79.5 199.5t-195.5 81.5q-112 0 -239 -97.5t-338 -335.5zM586 1294l153 156l158 -156l-154 -153z" />
    <glyph glyph-name="uniFEC8" unicode="&#x638;" horiz-adv-x="1650" arabic-form="medial" 
d="M231 1485h175v-584q0 -107 -21 -242l-25 -145q62 73 187 207q183 195 306 267.5t251 72.5q183 0 304.5 -123.5t121.5 -312.5q0 -278 -226.5 -451.5t-596.5 -173.5h-707q-20 0 -20 23v141q0 20 20 20h92l139 172v1129zM274 184h408q300 0 486 115.5t186 296.5
q0 118 -79.5 199.5t-195.5 81.5q-112 0 -239 -97.5t-338 -335.5zM1251 190l90 103q83 -63 149.5 -86t160.5 -23q20 0 20 -20v-141q0 -23 -20 -23q-117 0 -209.5 43t-190.5 147zM586 1294l153 156l158 -156l-154 -153z" />
    <glyph glyph-name="uniFECA" unicode="&#x639;" horiz-adv-x="1220" arabic-form="final" 
d="M653 1081q191 0 317 -106t126 -262q0 -206 -271 -383l-55 -35q85 -47 193 -78q112 -33 258 -33q20 0 20 -20v-141q0 -23 -20 -23q-268 0 -508 147q-30 17 -90 62q-73 -43 -111 -68q-113 -74 -172 -146t-59 -151q0 -106 108 -164.5t309 -58.5q108 0 214 17.5t251 58.5
v-164q-158 -53 -262 -74.5t-213 -21.5q-288 0 -435 100.5t-147 290.5q0 214 263 399q44 32 106 70q-47 81 -76 127q-105 167 -184 252l-74 82l-69 -35v164q123 86 283 140t298 54zM614 377l76 47q113 73 171.5 135t58.5 123q0 94 -82 154.5t-211 60.5q-112 0 -258 -47
q-26 -8 -78 -27q85 -88 160 -192t163 -254z" />
    <glyph glyph-name="uniFECB" unicode="&#x639;" horiz-adv-x="1112" arabic-form="initial" 
d="M1061 270l-37 -182q-239 -43 -473 -65.5t-551 -22.5q-20 0 -20 23v141q0 20 20 20q127 0 303 4l-31 21q-178 135 -178 348q0 185 132 310.5t329 125.5q133 0 348 -84v-164q-198 66 -321 66q-142 0 -227 -73t-85 -197q0 -56 26.5 -113t76.5 -107.5t136 -80t193 -23.5
l-4 -2q64 7 103 14q72 9 260 41z" />
    <glyph glyph-name="uniFECC" unicode="&#x639;" horiz-adv-x="1208" arabic-form="medial" 
d="M641 993q191 0 316.5 -106t125.5 -262q0 -90 -43 -186.5t-129 -182.5q-24 -24 -51 -45q74 -12 109 -16q132 -11 239 -11q21 0 21 -20v-141q0 -23 -21 -23q-211 0 -358 39q-103 26 -174 57l-88 -30q-126 -37 -258.5 -51.5t-329.5 -14.5q-20 3 -20 23v141q0 20 20 20
q146 0 272 6q100 6 189 21q-13 23 -35.5 61t-30.5 52q-92 148 -192 262q-50 58 -76 84q-6 -2 -68 -35v164q123 86 283.5 140t298.5 54zM692 266q95 65 155 152.5t60 163.5q0 104 -79 165.5t-214 61.5q-112 0 -258 -47q-36 -11 -80 -27q85 -85 166 -203q102 -147 185 -301
q40 17 65 35z" />
    <glyph glyph-name="uniFECE" unicode="&#x63a;" horiz-adv-x="1220" arabic-form="final" 
d="M653 1081q191 0 317 -106t126 -262q0 -206 -271 -383l-55 -35q85 -47 193 -78q112 -33 258 -33q20 0 20 -20v-141q0 -23 -20 -23q-268 0 -508 147q-30 17 -90 62q-73 -43 -111 -68q-113 -74 -172 -146t-59 -151q0 -106 108 -164.5t309 -58.5q108 0 214 17.5t251 58.5
v-164q-158 -53 -262 -74.5t-213 -21.5q-288 0 -435 100.5t-147 290.5q0 214 263 399q44 32 106 70q-47 81 -76 127q-105 167 -184 252l-74 82l-69 -35v164q123 86 283 140t298 54zM614 377l76 47q113 73 171.5 135t58.5 123q0 94 -82 154.5t-211 60.5q-112 0 -258 -47
q-26 -8 -78 -27q85 -88 160 -192t163 -254zM469 1389l154 155l157 -155l-153 -154z" />
    <glyph glyph-name="uniFECF" unicode="&#x63a;" horiz-adv-x="1112" arabic-form="initial" 
d="M1061 270l-37 -182q-239 -43 -473 -65.5t-551 -22.5q-20 0 -20 23v141q0 20 20 20q127 0 303 4l-31 21q-178 135 -178 348q0 185 132 310.5t329 125.5q133 0 348 -84v-164q-198 66 -321 66q-142 0 -227 -73t-85 -197q0 -56 26.5 -113t76.5 -107.5t136 -80t193 -23.5
l-4 -2q64 7 103 14q72 9 260 41zM373 1298l153 156l158 -156l-154 -153z" />
    <glyph glyph-name="uniFED0" unicode="&#x63a;" horiz-adv-x="1208" arabic-form="medial" 
d="M641 993q191 0 316.5 -106t125.5 -262q0 -90 -43 -186.5t-129 -182.5q-24 -24 -51 -45q74 -12 109 -16q132 -11 239 -11q21 0 21 -20v-141q0 -23 -21 -23q-211 0 -358 39q-103 26 -174 57l-88 -30q-126 -37 -258.5 -51.5t-329.5 -14.5q-20 3 -20 23v141q0 20 20 20
q146 0 272 6q100 6 189 21q-13 23 -35.5 61t-30.5 52q-92 148 -192 262q-50 58 -76 84q-6 -2 -68 -35v164q123 86 283.5 140t298.5 54zM692 266q95 65 155 152.5t60 163.5q0 104 -79 165.5t-214 61.5q-112 0 -258 -47q-36 -11 -80 -27q85 -85 166 -203q102 -147 185 -301
q40 17 65 35zM451 1298l153 156l158 -156l-154 -153z" />
    <glyph glyph-name="uniFED2" unicode="&#x641;" horiz-adv-x="1974" arabic-form="final" 
d="M1417 993q191 0 318 -128t127 -322q0 -138 -90 -254q-33 -42 -95 -94l70 -5q114 -6 227 -6q21 0 21 -20v-141q0 -23 -21 -23q-155 0 -350 29q-101 14 -199 43q-106 -34 -208 -47q-186 -25 -357 -25q-20 3 -20 23v141q0 20 20 20q114 0 219 6l68 5q-46 37 -88 86
q-88 113 -88 260q0 192 129 322t317 130zM1614 332q72 87 72 196q0 123 -77 202t-198 79q-115 0 -190.5 -77t-75.5 -204q0 -109 67 -194q69 -85 189 -125q142 40 213 123zM125 795h164q-33 -176 -33 -283q0 -173 87.5 -250.5t295.5 -77.5h242q20 0 20 -20v-141
q0 -23 -20 -23h-281q-247 0 -382.5 120.5t-135.5 346.5q0 149 43 328zM1255 1294l154 156l158 -156l-154 -153z" />
    <glyph glyph-name="uniFED3" unicode="&#x641;" horiz-adv-x="1067" arabic-form="initial" 
d="M537 993q187 0 312.5 -133t125.5 -330q0 -246 -146.5 -388t-398.5 -142h-430q-20 3 -20 23v141q0 20 20 20h227q-21 43 -55 95q-50 78 -71 144.5t-21 141.5q0 178 132.5 303t324.5 125zM399 184h50q161 0 255.5 84.5t94.5 239.5q0 133 -77 216t-202 83q-116 0 -191 -76
t-75 -188q0 -91 74 -219q37 -63 51 -97zM385 1294l154 156l157 -156l-153 -153z" />
    <glyph glyph-name="uniFED4" unicode="&#x641;" horiz-adv-x="1114" arabic-form="medial" 
d="M557 993q191 0 317.5 -127.5t126.5 -322.5q0 -138 -90 -254q-34 -45 -94 -94l70 -5q114 -6 227 -6q21 0 21 -20v-141q0 -23 -21 -23q-155 0 -350 29q-101 14 -199 43q-105 -33 -209 -47q-186 -25 -356 -25q-20 3 -20 23v141q0 20 20 20q114 0 219 6l68 5q-46 37 -88 86
q-88 113 -88 260q0 192 129 322t317 130zM754 332q71 86 71 196q0 123 -76.5 202t-197.5 79q-115 0 -190.5 -77t-75.5 -204q0 -109 67 -194q69 -85 189 -125q142 40 213 123zM401 1294l154 156l158 -156l-154 -153z" />
    <glyph glyph-name="uniFED6" unicode="&#x642;" horiz-adv-x="1556" arabic-form="final" 
d="M1012 973q177 0 285 -117t120 -324q1 -15 4 -86t4 -118l7 -144h124q21 0 21 -20v-141q0 -23 -21 -23h-126q-8 -65 -41 -135q-69 -145 -239 -225t-427 -80q-304 0 -472.5 138t-168.5 419q0 118 22 220.5t70 246.5h164q-92 -237 -92 -437q0 -206 129 -305.5t405 -99.5
q171 0 288.5 54t166.5 145q9 17 22 59h-163q-249 0 -391 124.5t-142 350.5q0 216 126 357t325 141zM1249 410l-6 102q-10 134 -73 205t-169 71q-117 0 -191.5 -87t-74.5 -218q0 -147 95 -223t276 -76h158l-7 111q-4 78 -8 115zM694 1292l154 156l156 -152l153 152l156 -156
l-156 -153l-153 149l-154 -149z" />
    <glyph glyph-name="uniFED7" unicode="&#x642;" horiz-adv-x="1067" arabic-form="initial" 
d="M537 993q187 0 312.5 -133t125.5 -330q0 -246 -146.5 -388t-398.5 -142h-430q-20 3 -20 23v141q0 20 20 20h227q-21 43 -55 95q-50 78 -71 144.5t-21 141.5q0 178 132.5 303t324.5 125zM399 184h50q161 0 255.5 84.5t94.5 239.5q0 133 -77 216t-202 83q-116 0 -191 -76
t-75 -188q0 -91 74 -219q37 -63 51 -97zM233 1292l154 156l156 -152l153 152l156 -156l-156 -153l-153 149l-154 -149z" />
    <glyph glyph-name="uniFED8" unicode="&#x642;" horiz-adv-x="1114" arabic-form="medial" 
d="M557 993q191 0 317.5 -127.5t126.5 -322.5q0 -138 -90 -254q-34 -45 -94 -94l70 -5q114 -6 227 -6q21 0 21 -20v-141q0 -23 -21 -23q-155 0 -350 29q-101 14 -199 43q-105 -33 -209 -47q-186 -25 -356 -25q-20 3 -20 23v141q0 20 20 20q114 0 219 6l68 5q-46 37 -88 86
q-88 113 -88 260q0 192 129 322t317 130zM754 332q71 86 71 196q0 123 -76.5 202t-197.5 79q-115 0 -190.5 -77t-75.5 -204q0 -109 67 -194q69 -85 189 -125q142 40 213 123zM250 1292l153 156l156 -152l154 152l155 -156l-155 -153l-154 149l-153 -149z" />
    <glyph glyph-name="uniFEDA" unicode="&#x643;" horiz-adv-x="1796" arabic-form="final" 
d="M123 795h164q-33 -176 -33 -283q0 -173 87.5 -250.5t295.5 -77.5h242q181 0 323 29q106 20 187 63q-11 64 -11 115v1094h174v-1088q0 -111 56.5 -162t187.5 -51q21 0 21 -20v-141q0 -23 -21 -23q-211 0 -315 104q-26 30 -35 43q-111 -72 -234 -106q-143 -41 -329 -41h-4
h-9h-6h-266q-247 0 -382.5 120.5t-135.5 346.5q0 149 43 328zM909 881h205l-45 -150h-256q-106 0 -217 -35v144q75 24 109 32l12 5l-6 6q-37 46 -37 104q0 84 59 140.5t156 56.5q70 0 149 -39v-137q-85 26 -139 26q-42 0 -70 -21t-28 -55q0 -39 33 -59q27 -15 75 -18z" />
    <glyph glyph-name="uniFEDB" unicode="&#x643;" horiz-adv-x="1189" arabic-form="initial" 
d="M840 1628h262v-8l-758 -598l356 -156q418 -181 418 -456q0 -185 -145.5 -297.5t-392.5 -112.5h-580q-20 0 -20 23v141q0 20 20 20h596q151 0 249.5 61.5t98.5 155.5q0 85 -75.5 155t-254.5 149l-491 217v139z" />
    <glyph glyph-name="uniFEDC" unicode="&#x643;" horiz-adv-x="1329" arabic-form="medial" 
d="M840 1628h262v-8l-758 -598l356 -156q418 -181 418 -456q0 -185 -145.5 -297.5t-392.5 -112.5h-580q-20 0 -20 23v141q0 20 20 20h596q151 0 249.5 61.5t98.5 155.5q0 85 -75.5 155t-254.5 149l-491 217v139zM930 190l90 103q83 -63 149 -86t160 -23q21 0 21 -20v-141
q0 -23 -21 -23q-117 0 -209 43t-190 147z" />
    <glyph glyph-name="uniFEDE" unicode="&#x644;" horiz-adv-x="1404" arabic-form="final" 
d="M1001 1485h175v-1127q0 -83 61.5 -128.5t167.5 -45.5q20 0 20 -20v-141q0 -23 -20 -23q-152 0 -234 82l-4 2q-10 -77 -26 -135q-49 -181 -187 -285t-354 -104q-248 0 -383 144.5t-135 412.5q0 118 22 220.5t70 246.5h164q-92 -237 -92 -437q0 -191 92 -297t278 -106
q203 0 294 112t91 353v1276z" />
    <glyph glyph-name="uniFEDF" unicode="&#x644;" horiz-adv-x="591" arabic-form="initial" 
d="M244 1485h174v-1094q0 -184 -106 -287.5t-312 -103.5q-20 0 -20 23v141q0 20 20 20q131 0 187.5 51t56.5 162v1088z" />
    <glyph glyph-name="uniFEE0" unicode="&#x644;" horiz-adv-x="651" arabic-form="medial" 
d="M233 1485h175v-1088q0 -111 56 -162t187 -51q21 0 21 -20v-141q0 -23 -21 -23q-211 0 -315 104l-25 29l-20 -22q-58 -54 -125.5 -82.5t-165.5 -28.5q-20 0 -20 23v141q0 20 20 20q82 0 154 29q56 22 92 53q-13 63 -13 125v1094z" />
    <glyph glyph-name="uniFEE2" unicode="&#x645;" horiz-adv-x="1370" arabic-form="final" 
d="M780 954q125 0 205 -74t127 -233l59 -203q39 -144 84.5 -202t114.5 -58q21 0 21 -20v-141q0 -23 -21 -23q-134 0 -225 109q-13 13 -27 34l-37 -143q-446 0 -637 131q-50 37 -77 76q-49 -11 -78 -43q-43 -46 -43 -152q0 -174 67 -575h-174q-67 417 -67 598q0 122 53 208.5
t147 127.5q28 11 62 18q11 77 28 135q23 81 62 155t91 137t121.5 100.5t143.5 37.5zM1094 184l-21 47q-28 65 -57 158l-51 160q-35 116 -81.5 168.5t-113.5 52.5q-86 0 -168 -116t-129 -332q185 -104 434 -129q83 -9 187 -9z" />
    <glyph glyph-name="uniFEE3" unicode="&#x645;" horiz-adv-x="1128" arabic-form="initial" 
d="M641 944q98 0 171.5 -51t122 -152t78 -235.5t44.5 -315.5l-137 -217q-215 0 -404 39q-177 34 -317 99l-11 -15q-37 -50 -81.5 -73t-106.5 -23q-20 3 -20 23v141q0 20 20 20q16 0 29 3.5t25 13t21.5 19.5t21 29t19.5 35.5t20.5 46.5t21.5 53t25 63t28 71
q93 229 189.5 327.5t240.5 98.5zM573 186q160 -26 322 -26q-18 288 -84 442q-71 156 -180 156q-85 0 -149 -72.5t-140 -265.5l-61 -146q130 -60 292 -88z" />
    <glyph glyph-name="uniFEE4" unicode="&#x645;" horiz-adv-x="1171" arabic-form="medial" 
d="M580 954q125 0 204.5 -73.5t126.5 -233.5l60 -203q39 -144 84 -202t114 -58q21 0 21 -20v-141q0 -23 -21 -23q-134 0 -225 109q-10 10 -26 34l-37 -143q-206 0 -375 31q-142 28 -225 75q-51 -38 -80 -55q-88 -51 -201 -51q-20 0 -20 23v141q0 20 20 20q85 0 152 25l12 4
l-4 4q-29 56 -29 113q0 70 19.5 152.5t58.5 166t91.5 151.5t126 111t153.5 43zM893 184l-21 47q-28 65 -57 158l-51 160q-35 116 -81.5 168.5t-113.5 52.5q-86 0 -168 -116t-129 -332q185 -104 435 -129q83 -9 186 -9z" />
    <glyph glyph-name="uniFEE6" unicode="&#x646;" horiz-adv-x="1386" arabic-form="final" 
d="M926 901h174q30 -205 51 -375q6 -53 14 -155l2 -13q6 -56 25 -92.5t51.5 -53.5t64 -22.5t76.5 -5.5q21 0 21 -20v-141q0 -23 -21 -23q-127 0 -196 72q-2 2 -10.5 12t-12.5 16q-10 -93 -28 -153q-54 -183 -191.5 -285t-355.5 -102q-242 0 -375 144.5t-133 412.5
q0 118 22 220.5t70 246.5h164q-92 -237 -92 -437q0 -193 88 -298t272 -105q207 0 303.5 110.5t96.5 348.5q0 158 -70 627q-6 47 -10 71zM469 963l154 155l157 -155l-153 -154z" />
    <glyph glyph-name="uniFEE7" unicode="&#x646;" horiz-adv-x="530" arabic-form="initial" 
d="M182 993h174q62 -434 62 -602q0 -184 -106 -287.5t-312 -103.5q-20 0 -20 23v141q0 20 20 20q133 0 191.5 51.5t58.5 161.5q0 86 -14 205.5t-54 390.5zM98 1294l154 156l158 -156l-154 -153z" />
    <glyph glyph-name="uniFEE8" unicode="&#x646;" horiz-adv-x="614" arabic-form="medial" 
d="M260 758h160q0 -210 -21 -348q-15 -87 -39 -158l21 -12q104 -56 233 -56q21 0 21 -20v-141q0 -23 -21 -23q-113 0 -206 41q-65 30 -121 78q-41 -48 -88 -72q-83 -47 -199 -47q-20 0 -20 23v141q0 20 20 20q152 0 207 111q28 61 40.5 166t12.5 297zM174 1079l154 156
l157 -156l-153 -153z" />
    <glyph glyph-name="uniFEE9" unicode="&#x647;" horiz-adv-x="1685" arabic-form="isolated" 
d="M635 1188v184q225 0 407 -55.5t302 -155.5t184.5 -238.5t64.5 -304.5q0 -193 -110 -483l-172 -162q-170 0 -336 35q-108 24 -244 68q-96 -33 -174 -49q-126 -27 -250 -27q-127 0 -276 47v174q145 -37 266 -37q60 0 115 9l18 4q-47 36 -86 84q-86 115 -86 260
q0 192 126.5 322t313.5 130q190 0 314.5 -127.5t124.5 -322.5q0 -138 -90 -254q-39 -50 -97 -99q9 0 11 -2q212 -30 352 -30q48 104 77 225t29 219q0 90 -28.5 174t-90.5 159.5t-152 131.5t-222 88.5t-291 32.5zM891 332q72 87 72 196q0 124 -75 202.5t-196 78.5
q-114 0 -187 -77t-73 -204q0 -107 66 -194q67 -85 184 -125q139 41 209 123z" />
    <glyph glyph-name="uniFEEA" unicode="&#x647;" horiz-adv-x="1097" arabic-form="final" 
d="M741 1102h174v-731q0 -96 41 -141.5t142 -45.5q20 0 20 -20v-141q0 -23 -20 -23q-180 0 -269 102q-69 -39 -153 -71q-88 -31 -180 -31q-184 0 -299 108.5t-115 284.5q0 67 18.5 132t59 131.5t113.5 127t173 107.5q122 56 295 80v131zM580 766q-153 -50 -238.5 -142.5
t-85.5 -215.5q0 -104 65.5 -164t178.5 -60q68 0 151 17q50 11 109 37q-19 68 -19 149v418q-83 -15 -161 -39z" />
    <glyph glyph-name="uniFEEB" unicode="&#x647;" horiz-adv-x="1540" arabic-form="initial" 
d="M487 1188l2 184q225 0 407 -55.5t302.5 -155.5t185 -238.5t64.5 -304.5q0 -190 -111 -483l-174 -162q-168 0 -334 35q-118 27 -247 70q-108 -38 -230 -53q-183 -25 -352 -25q-20 3 -20 23v141q0 20 20 20q114 0 213 6l70 7q-47 37 -84 84q-88 113 -88 260
q0 192 126.5 322t313.5 130q192 0 316 -127.5t124 -322.5q0 -138 -90 -254q-41 -53 -96 -99q8 0 10 -2q211 -30 352 -30q47 103 76 224.5t29 219.5q0 91 -28.5 174.5t-90.5 159t-152 131.5t-222 88.5t-292 32.5zM745 332q70 85 70 196q0 124 -74.5 202.5t-195.5 78.5
q-112 0 -186 -77t-74 -204q0 -109 67 -194q66 -85 183 -125q139 40 210 123z" />
    <glyph glyph-name="uniFEEC" unicode="&#x647;" horiz-adv-x="1132" arabic-form="medial" 
d="M557 1147h137q140 -123 223.5 -273.5t83.5 -298.5q0 -147 -75 -253q-33 -50 -86 -97q50 -16 96 -24q104 -17 197 -17q20 0 20 -22v-142q0 -20 -20 -20q-53 0 -115 10q-42 10 -82 23q78 -104 78 -197q0 -125 -93.5 -200.5t-248.5 -75.5q-177 0 -309.5 102t-194.5 281
l-18 61q-94 -4 -150 -4q-20 0 -20 23v141q0 20 20 20q88 0 129 2v17q0 157 41.5 316.5t140.5 328t246 299.5zM293 201l72 12q232 42 347 133t115 223q0 195 -151 359q-33 38 -64 65q-77 -67 -129 -145q-92 -136 -141 -298.5t-49 -307.5v-41zM401 35q-28 -4 -77 -15
q0 -2 2 -4q48 -137 141 -205.5t211 -68.5q81 0 129.5 32t48.5 91q0 67 -41 135q-36 56 -113 133q-126 -63 -301 -98z" />
    <glyph glyph-name="uniFEEE" unicode="&#x648;" horiz-adv-x="1087" arabic-form="final" 
d="M543 973q177 0 285 -117t120 -324q0 -14 3.5 -86.5t4.5 -119.5l7 -142h124q21 0 21 -20v-141q0 -23 -21 -23h-126q-9 -72 -37 -139q-66 -145 -236 -223t-442 -78v168q273 0 413 90q110 72 134 182h-168q-249 0 -391 124.5t-142 350.5q0 216 126 357t325 141zM797 184
l-9 115l-14 213q-10 134 -73 205t-169 71q-117 0 -191.5 -87t-74.5 -218q0 -147 95 -223t276 -76h160z" />
    <glyph glyph-name="uniFEF0" unicode="&#x649;" horiz-adv-x="1390" arabic-form="final" 
d="M993 70v174q159 -37 235.5 -48.5t162.5 -11.5q20 0 20 -20v-141q0 -23 -20 -23h-19q-88 -202 -252 -313q-186 -127 -458 -127q-279 0 -429.5 141t-150.5 416q0 118 22 220.5t70 246.5h164q-92 -237 -92 -437q0 -209 111.5 -306t342.5 -97q146 0 266.5 50.5t198.5 150.5
q30 39 47 71q-176 42 -219 54z" />
    <glyph glyph-name="uniFEF2" unicode="&#x64a;" horiz-adv-x="1390" arabic-form="final" 
d="M993 70v174q159 -37 235.5 -48.5t162.5 -11.5q20 0 20 -20v-141q0 -23 -20 -23h-19q-88 -202 -252 -313q-186 -127 -458 -127q-279 0 -429.5 141t-150.5 416q0 118 22 220.5t70 246.5h164q-92 -237 -92 -437q0 -209 111.5 -306t342.5 -97q146 0 266.5 50.5t198.5 150.5
q30 39 47 71q-176 42 -219 54zM496 -713l153 154l156 -150l153 150l156 -154l-156 -155l-153 151l-154 -151z" />
    <glyph glyph-name="uniFEF3" unicode="&#x64a;" horiz-adv-x="681" arabic-form="initial" 
d="M342 993h174q62 -434 62 -602q0 -184 -106 -287.5t-312 -103.5h-160q-20 0 -20 23v141q0 20 20 20h160q132 0 190 51.5t58 161.5q0 146 -66 596zM-35 -313l154 153l155 -149l154 149l156 -153l-156 -156l-154 152l-153 -152z" />
    <glyph glyph-name="uniFEF4" unicode="&#x64a;" horiz-adv-x="757" arabic-form="medial" 
d="M319 758h162q0 -197 -16 -338q-7 -59 -25 -127q71 -52 142 -78q85 -31 176 -31q20 0 20 -20v-141q0 -23 -20 -23q-199 0 -379 160q-51 -69 -129 -109q-99 -51 -250 -51q-20 0 -20 23v141q0 20 20 20q201 0 264 109q35 58 45 156t10 309zM37 -313l153 153l156 -149
l154 149l155 -153l-155 -156l-154 152l-153 -152z" />
    <glyph glyph-name=".notdef" horiz-adv-x="1024" 
d="M0 0v1485h1024v-1485h-1024zM489 741l-450 684v-1366zM532 741l453 -682v1366zM512 709l-444 -670h886zM68 1446l444 -672l442 672h-886z" />
    <glyph glyph-name=".null" 
 />
    <glyph glyph-name="nonmarkingreturn" horiz-adv-x="682" 
 />
    <glyph glyph-name="space" unicode=" " horiz-adv-x="485" 
 />
    <glyph glyph-name="exclam" unicode="!" horiz-adv-x="501" 
d="M309 434h-116l-41 602v449h198v-449zM369 0h-236v236h236v-236z" />
    <glyph glyph-name="quotedbl" unicode="&#x22;" horiz-adv-x="632" 
d="M369 1485h209l-41 -492h-127zM55 1485h209l-41 -492h-127z" />
    <glyph glyph-name="numbersign" unicode="#" horiz-adv-x="1363" 
d="M133 1102h291l53 383h152l-54 -383h320l53 383h152l-53 -383h274l-21 -146h-274l-49 -356h276l-20 -145h-277l-61 -455h-152l62 455h-320l-61 -455h-152l62 455h-289l21 145h288l49 356h-290zM555 956l-49 -356h319l49 356h-319z" />
    <glyph glyph-name="dollar" unicode="$" horiz-adv-x="1202" 
d="M539 1661h112v-150q211 -17 331.5 -140t119.5 -324h-193q-2 76 -23.5 134.5t-58 94t-80.5 55t-96 25.5v-508l31 -8q55 -15 96.5 -28.5t91.5 -34.5t86 -43.5t72 -55.5t58.5 -71t36.5 -89t14 -110q0 -100 -38.5 -181t-106 -133.5t-154 -82.5t-187.5 -36v-174h-112v174
q-212 17 -343.5 155.5t-127.5 340.5h192q4 -153 84 -240t195 -100v555l-45 12q-177 47 -282.5 153.5t-105.5 270.5q0 85 36 156.5t98 118.5t138 76t161 38v150zM944 379q0 51 -14 90.5t-37 67t-62 50t-80 37.5t-100 31v-526q125 8 209 72.5t84 177.5zM299 1124
q0 -92 58 -151t180 -94l2 -2v481q-101 -8 -170.5 -67t-69.5 -167z" />
    <glyph glyph-name="percent" unicode="%" horiz-adv-x="2043" 
d="M410 635q-161 0 -247.5 118t-86.5 314t86.5 314t247.5 118q163 0 250.5 -118t87.5 -314t-87.5 -314t-250.5 -118zM410 748q90 0 136 82t46 237t-46 238.5t-136 83.5q-86 0 -132.5 -84t-46.5 -238t46.5 -236.5t132.5 -82.5zM614 0h-206l1024 1485h206zM1638 -14
q-161 0 -247 117.5t-86 314.5t86 314.5t247 117.5q163 0 250.5 -118t87.5 -314t-87.5 -314t-250.5 -118zM1638 98q90 0 136.5 82.5t46.5 237.5t-46.5 238t-136.5 83q-86 0 -132 -83.5t-46 -237.5t46 -237t132 -83z" />
    <glyph glyph-name="ampersand" unicode="&#x26;" horiz-adv-x="1439" 
d="M551 -27q-223 0 -358.5 124t-135.5 311q0 166 100 280t275 174q-81 95 -122.5 174.5t-41.5 161.5q0 141 112.5 228t287.5 87q56 0 108.5 -10t103 -34t87.5 -59.5t59.5 -91t22.5 -124.5q0 -260 -308 -385l301 -320q61 140 72 316h193q-22 -259 -133 -453l331 -352h-268
l-180 193q-207 -220 -506 -220zM551 135q237 0 387 182l-397 426q-285 -101 -285 -327q0 -125 87 -203t208 -78zM467 1212q0 -120 160 -280l4 -6q110 40 174.5 109t64.5 157q0 86 -54.5 126t-143.5 40q-85 0 -145 -37.5t-60 -108.5z" />
    <glyph glyph-name="quotesingle" unicode="'" horiz-adv-x="319" 
d="M55 1485h209l-41 -492h-127z" />
    <glyph glyph-name="parenleft" unicode="(" horiz-adv-x="501" 
d="M66 563q0 148 25.5 292t69 260.5t89.5 206.5t98 163h154q-111 -177 -177.5 -412t-66.5 -510q0 -274 66.5 -508t177.5 -413h-154q-52 75 -97.5 164t-89.5 205.5t-69.5 260t-25.5 291.5z" />
    <glyph glyph-name="parenright" unicode=")" horiz-adv-x="501" 
d="M436 563q0 -148 -25.5 -291.5t-69.5 -260t-89.5 -205.5t-97.5 -164h-154q111 179 177.5 413t66.5 508q0 273 -67 509.5t-177 412.5h154q52 -73 98 -163t89.5 -206.5t69 -260.5t25.5 -292z" />
    <glyph glyph-name="asterisk" unicode="*" horiz-adv-x="720" 
d="M420 1485v-244l231 88l47 -115l-235 -81l141 -199l-94 -72l-152 207l-139 -207l-108 70l143 201l-231 81l40 115l232 -88v244h125z" />
    <glyph glyph-name="plus" unicode="+" horiz-adv-x="1388" 
d="M788 0h-186v463h-463v176h463v451h186v-451h463v-176h-463v-463z" />
    <glyph glyph-name="comma" unicode="," horiz-adv-x="501" 
d="M133 0v236h236v-252l-125 -269h-119l108 285h-100z" />
    <glyph glyph-name="hyphen" unicode="-" horiz-adv-x="829" 
d="M739 473h-651v176h651v-176z" />
    <glyph glyph-name="period" unicode="." horiz-adv-x="501" 
d="M369 0h-236v236h236v-236z" />
    <glyph glyph-name="slash" unicode="/" horiz-adv-x="772" 
d="M186 0h-186l584 1485h188z" />
    <glyph glyph-name="zero" unicode="0" horiz-adv-x="1353" 
d="M1055 743q0 302 -100.5 457.5t-278.5 155.5q-181 0 -280 -154.5t-99 -458.5q0 -306 99 -460t280 -154t280 154t99 460zM1253 743q0 -363 -144.5 -566.5t-432.5 -203.5q-194 0 -325 96t-192 266t-61 408t61 407.5t192 265t325 95.5q146 0 256.5 -53.5t180.5 -154.5
t105 -241.5t35 -318.5z" />
    <glyph glyph-name="one" unicode="1" horiz-adv-x="753" 
d="M555 0h-186v1161h-344v127q85 2 141.5 10.5t108 30t87.5 59.5t66 97h127v-1485z" />
    <glyph glyph-name="two" unicode="2" horiz-adv-x="1208" 
d="M618 1511q211 0 341.5 -102.5t130.5 -286.5q0 -100 -42.5 -203t-109 -192t-173 -189.5t-208.5 -181.5t-242 -182h815v-174h-1069v168q212 156 354 273.5t256 235.5t168 221t54 200q0 119 -73.5 188.5t-205.5 69.5q-63 0 -117 -18t-99.5 -56t-73 -104.5t-29.5 -155.5h-193
q-4 221 137 355t379 134z" />
    <glyph glyph-name="three" unicode="3" horiz-adv-x="1202" 
d="M578 129q151 0 243 75.5t92 211.5q0 62 -22 111t-60 80.5t-93 52.5t-117 29.5t-136 8.5h-30v170h24q199 0 297 59t98 187q0 114 -82 178t-206 64q-145 0 -228.5 -78.5t-95.5 -210.5h-192q18 201 155 322.5t365 121.5q100 0 184 -21t152 -64.5t106.5 -117.5t38.5 -173
q0 -116 -63 -206.5t-179 -137.5q283 -92 283 -373q0 -87 -28.5 -160.5t-78.5 -125.5t-118 -88t-146.5 -53.5t-165.5 -17.5q-128 0 -227 37t-161 103t-96.5 147t-43.5 178h193q18 -143 102 -226t236 -83z" />
    <glyph glyph-name="four" unicode="4" horiz-adv-x="1277" 
d="M772 1229l-530 -686h530v686zM1233 543v-176h-272v-367h-189v367h-737v176l735 942h191v-942h272z" />
    <glyph glyph-name="five" unicode="5" horiz-adv-x="1243" 
d="M618 129q140 0 236 96.5t96 261.5q0 89 -29 158.5t-77.5 111t-106.5 62.5t-121 21q-106 0 -181.5 -50t-104.5 -114l-187 10l97 799h852v-174h-701l-51 -422q118 112 319 112q98 0 186 -34.5t155.5 -98t107 -162t39.5 -217.5q0 -123 -43.5 -223t-117.5 -163t-168.5 -96.5
t-199.5 -33.5q-100 0 -183.5 24.5t-142.5 67t-102.5 101t-67.5 124.5t-32 140h193q24 -147 104.5 -224t230.5 -77z" />
    <glyph glyph-name="six" unicode="6" horiz-adv-x="1259" 
d="M313 475q0 -155 88.5 -250.5t235.5 -95.5q142 0 234 97t92 249q0 153 -91 252.5t-233 99.5q-145 0 -235.5 -99t-90.5 -253zM655 1356q-169 0 -262.5 -154.5t-101.5 -419.5q55 94 153 150.5t238 56.5q208 0 343.5 -141t135.5 -363q0 -139 -63.5 -255t-184 -186.5
t-274.5 -70.5q-274 0 -407.5 183.5t-133.5 533.5q0 130 18.5 246t62 223t108.5 184t165 122.5t226 45.5q105 0 189 -31t138 -84.5t86.5 -117t45.5 -137.5h-203q-19 101 -92 158t-187 57z" />
    <glyph glyph-name="seven" unicode="7" horiz-adv-x="1050" 
d="M23 1311v174h1028v-174q-278 -224 -440.5 -560t-188.5 -751h-225q24 396 189.5 731t447.5 580h-811z" />
    <glyph glyph-name="eight" unicode="8" horiz-adv-x="1282" 
d="M641 1511q224 0 360 -106t136 -272q0 -100 -50.5 -192t-154.5 -150q131 -53 190.5 -155t59.5 -218q0 -139 -72.5 -241t-194 -153t-274.5 -51q-154 0 -276 51t-194.5 153t-72.5 241q0 53 12.5 104.5t40 103t78.5 95t121 70.5q-104 58 -154.5 150t-50.5 192q0 166 136 272
t360 106zM641 713q-158 0 -251 -81.5t-93 -213.5q0 -131 92.5 -210t251.5 -79q158 0 251 79t93 210q0 132 -93.5 213.5t-250.5 81.5zM948 1110q0 111 -84 178.5t-223 67.5q-140 0 -224.5 -67.5t-84.5 -178.5q0 -114 85.5 -187t223.5 -73t222.5 73t84.5 187z" />
    <glyph glyph-name="nine" unicode="9" horiz-adv-x="1249" 
d="M932 1010q0 155 -87.5 250.5t-234.5 95.5q-144 0 -234.5 -96.5t-90.5 -249.5t90.5 -252t232.5 -99q145 0 234.5 98.5t89.5 252.5zM590 129q168 0 263 154.5t103 418.5q-55 -94 -154 -150t-239 -56q-207 0 -342 140.5t-135 364.5q0 138 63.5 253.5t184 186t274.5 70.5
q541 0 541 -716q0 -130 -19 -246.5t-63 -223t-109.5 -184t-165 -123t-223.5 -45.5q-105 0 -189 31t-137.5 84.5t-86 117.5t-45.5 138h202q19 -101 91 -158t186 -57z" />
    <glyph glyph-name="colon" unicode=":" horiz-adv-x="501" 
d="M369 866h-236v236h236v-236zM369 0h-236v236h236v-236z" />
    <glyph glyph-name="semicolon" unicode=";" horiz-adv-x="501" 
d="M133 0v236h236v-252l-125 -269h-119l108 285h-100zM369 866h-236v236h236v-236z" />
    <glyph glyph-name="less" unicode="&#x3c;" horiz-adv-x="1388" 
d="M160 629l1050 465v-201l-817 -344l817 -338v-199l-1050 457v160z" />
    <glyph glyph-name="equal" unicode="=" horiz-adv-x="1388" 
d="M1208 680h-1026v178h1026v-178zM1208 266h-1026v176h1026v-176z" />
    <glyph glyph-name="greater" unicode="&#x3e;" horiz-adv-x="1388" 
d="M1231 629v-160l-1051 -457v199l817 338l-817 344v201z" />
    <glyph glyph-name="question" unicode="?" horiz-adv-x="1021" 
d="M528 1511q89 0 170 -22t147.5 -64.5t106 -113t39.5 -160.5q0 -247 -276 -422q-104 -67 -138 -109t-34 -122v-64h-191v70q0 121 56 193t198 163q91 58 141 124.5t50 158.5q0 97 -76.5 155t-196.5 58q-81 0 -143 -26.5t-96.5 -70t-52 -90.5t-19.5 -98h-186q0 197 141 318.5
t360 121.5zM569 0h-235v236h235v-236z" />
    <glyph glyph-name="at" unicode="@" horiz-adv-x="1738" 
d="M1257 313q-85 0 -145 50t-72 139q-94 -183 -311 -183q-130 0 -216.5 93t-86.5 274q0 90 29.5 175t82 152t133 107.5t175.5 40.5q85 0 145 -41t90 -114l17 120h145l-59 -446q-31 -219 86 -219q82 0 138 98.5t56 263.5q0 249 -155 383.5t-414 134.5q-186 0 -332 -82.5
t-225.5 -226.5t-79.5 -323q0 -256 150 -419t407 -163q222 0 397 88l58 -141q-213 -101 -455 -101q-159 0 -294 56.5t-228.5 154.5t-146 235.5t-52.5 295.5q0 162 62 305t168.5 245t256 161t318.5 59q151 0 280 -40t229 -118t157 -205t57 -291q0 -121 -30.5 -221t-82 -164
t-116.5 -98.5t-136 -34.5zM848 1008q-111 0 -177.5 -95t-66.5 -229q0 -215 170 -215q117 0 184.5 98t67.5 240q0 97 -46 149t-132 52z" />
    <glyph glyph-name="A" unicode="A" horiz-adv-x="1351" 
d="M0 0l551 1485h242l559 -1485h-226l-116 322h-682l-115 -322h-213zM666 1274l-275 -774h553z" />
    <glyph glyph-name="B" unicode="B" horiz-adv-x="1376" 
d="M176 0v1485h535q88 0 161 -9.5t141.5 -35t115.5 -65.5t75.5 -105.5t28.5 -151.5q0 -107 -43.5 -195t-120.5 -132q225 -94 225 -353q0 -115 -41 -201t-114.5 -137t-167.5 -75.5t-209 -24.5h-586zM385 684v-508h379q315 0 315 260q0 130 -79.5 189t-247.5 59h-367z
M385 1309v-459h358q279 0 279 240q0 111 -74.5 165t-204.5 54h-358z" />
    <glyph glyph-name="C" unicode="C" horiz-adv-x="1486" 
d="M1219 473h202q-48 -240 -221.5 -370t-421.5 -130q-157 0 -284.5 57t-212.5 159.5t-131 244.5t-46 311q0 228 85 401.5t242 269t364 95.5q234 0 401.5 -132.5t216.5 -366.5h-203q-34 145 -144.5 234t-281.5 89q-204 0 -335.5 -155.5t-131.5 -434.5q0 -277 131.5 -436
t342.5 -159q173 0 282 87.5t146 235.5z" />
    <glyph glyph-name="D" unicode="D" horiz-adv-x="1495" 
d="M1178 743q0 105 -18 189.5t-47.5 143t-76 101.5t-95.5 68t-113.5 40t-122.5 19.5t-130 4.5h-190v-1133h190q72 0 130 4.5t122.5 19.5t113.5 40t95.5 68t76 101.5t47.5 143t18 190.5zM176 1485h406q146 0 265 -23t222 -76.5t173 -137.5t109.5 -212t39.5 -293
q0 -166 -39.5 -294t-109.5 -212t-173 -138t-222 -76.5t-265 -22.5h-406v1485z" />
    <glyph glyph-name="E" unicode="E" horiz-adv-x="1255" 
d="M176 0v1485h1008v-180h-799v-451h752v-180h-752v-494h799v-180h-1008z" />
    <glyph glyph-name="F" unicode="F" horiz-adv-x="1146" 
d="M176 0v1485h965v-180h-756v-451h713v-180h-713v-674h-209z" />
    <glyph glyph-name="G" unicode="G" horiz-adv-x="1576" 
d="M795 1511q233 0 401 -122.5t213 -335.5h-203q-39 131 -144.5 206.5t-277.5 75.5q-204 0 -335.5 -155.5t-131.5 -434.5q0 -277 129.5 -436t337.5 -159q63 0 121.5 10.5t117.5 38.5t102.5 70.5t70.5 111.5t27 158v39h-394v180h590v-758h-164l-10 186q-133 -213 -469 -213
q-209 0 -362.5 99.5t-231.5 273t-78 399.5q0 228 85 401.5t242 269t364 95.5z" />
    <glyph glyph-name="H" unicode="H" horiz-adv-x="1550" 
d="M1165 1485h209v-1485h-209v674h-780v-674h-209v1485h209v-631h780v631z" />
    <glyph glyph-name="I" unicode="I" horiz-adv-x="561" 
d="M385 1485v-1485h-209v1485h209z" />
    <glyph glyph-name="J" unicode="J" horiz-adv-x="1130" 
d="M745 473v1012h209v-1014q0 -242 -122.5 -370t-344.5 -128q-220 0 -342 124t-122 362h194q0 -148 77.5 -232t192.5 -84q39 0 73.5 8t69.5 30.5t59.5 58.5t40 95.5t15.5 137.5z" />
    <glyph glyph-name="K" unicode="K" horiz-adv-x="1363" 
d="M385 1485v-748l670 748h260l-555 -606l618 -879h-250l-510 725l-233 -258v-467h-209v1485h209z" />
    <glyph glyph-name="L" unicode="L" horiz-adv-x="1169" 
d="M385 1485v-1305h784v-180h-993v1485h209z" />
    <glyph glyph-name="M" unicode="M" horiz-adv-x="1810" 
d="M1016 0h-221l-410 1294v-1294h-209v1485h350l379 -1237l379 1237h350v-1485h-209v1294z" />
    <glyph glyph-name="N" unicode="N" horiz-adv-x="1546" 
d="M1370 0h-305l-680 1268v-1268h-209v1485h307l678 -1264v1264h209v-1485z" />
    <glyph glyph-name="O" unicode="O" horiz-adv-x="1601" 
d="M317 743q0 -278 137 -435.5t347 -157.5t346.5 157.5t136.5 435.5t-136.5 435t-346.5 157t-347 -157t-137 -435zM1497 743q0 -224 -84 -398t-243 -273t-369 -99t-369.5 99t-243.5 273t-84 398t84 397.5t243.5 272t369.5 98.5t369 -98.5t243 -272t84 -397.5z" />
    <glyph glyph-name="P" unicode="P" horiz-adv-x="1302" 
d="M176 1485h465q115 0 203.5 -11.5t169 -41.5t132 -79.5t81.5 -129t30 -187.5t-30 -188t-81.5 -129.5t-132 -79t-168.5 -40.5t-204 -11h-256v-588h-209v1485zM657 1309h-272v-539h272q62 0 105.5 3t91.5 11.5t79.5 27t58.5 47t39.5 73t12.5 104.5q0 51 -10.5 91.5t-28 68.5
t-45.5 49t-58.5 33t-72.5 19t-81.5 9.5t-90.5 2.5z" />
    <glyph glyph-name="Q" unicode="Q" horiz-adv-x="1601" 
d="M1497 743q0 -328 -176 -538l176 -176l-127 -127l-182 182q-164 -111 -387 -111q-210 0 -369.5 99t-243.5 273t-84 398t84 397.5t243.5 272t369.5 98.5t369 -98.5t243 -272t84 -397.5zM317 743q0 -278 137 -435.5t347 -157.5q135 0 250 71l-138 137l127 129l138 -139
q106 153 106 395q0 278 -136.5 435t-346.5 157t-347 -157t-137 -435z" />
    <glyph glyph-name="R" unicode="R" horiz-adv-x="1390" 
d="M1081 0l-321 627q-39 -2 -113 -2h-262v-625h-209v1485h471q81 0 148 -5t132 -17.5t115 -33.5t93.5 -54t71.5 -77.5t43.5 -105t15.5 -135.5q0 -170 -75.5 -264.5t-219.5 -133.5l344 -659h-234zM664 1309h-279v-508h279q52 0 90.5 2t81.5 8t73 17t58.5 30t45.5 45t27.5 64
t10.5 86q0 67 -20 114.5t-52 74.5t-85 42.5t-104.5 20t-125.5 4.5z" />
    <glyph glyph-name="S" unicode="S" horiz-adv-x="1312" 
d="M115 1106q0 102 49.5 182.5t129.5 127.5t171.5 71t185.5 24q103 0 193.5 -23.5t166 -71.5t128.5 -127t75 -183h-202q-23 80 -85 134t-133.5 74.5t-150.5 20.5q-48 0 -98.5 -11t-101 -34.5t-83 -68t-32.5 -103.5q0 -173 241 -227l172 -39q56 -12 100 -24t98 -31.5
t94.5 -42t81.5 -56t67 -72.5t42.5 -92.5t16.5 -115.5q0 -105 -46.5 -191t-125.5 -140.5t-180 -84t-213 -29.5q-259 0 -419.5 131.5t-190.5 356.5h204q29 -153 133.5 -232t276.5 -79q163 0 254.5 68.5t91.5 180.5q0 57 -23 101t-68.5 74t-99 50t-128.5 38l-185 38
q-65 14 -121.5 35.5t-110 56t-91.5 78t-61 104.5t-23 132z" />
    <glyph glyph-name="T" unicode="T" horiz-adv-x="1175" 
d="M483 0v1305h-483v180h1176v-180h-484v-1305h-209z" />
    <glyph glyph-name="U" unicode="U" horiz-adv-x="1497" 
d="M154 1485h208v-903q0 -223 88.5 -325.5t294.5 -102.5q208 0 299 111.5t91 338.5v881h208v-864q0 -332 -140 -490t-458 -158q-157 0 -266.5 33.5t-183 108.5t-107.5 195t-34 294v881z" />
    <glyph glyph-name="V" unicode="V" horiz-adv-x="1306" 
d="M23 1485h229l412 -1270l403 1270h219l-504 -1485h-250z" />
    <glyph glyph-name="W" unicode="W" horiz-adv-x="1888" 
d="M1069 1485l293 -1247l274 1247h219l-370 -1485h-254l-287 1221l-280 -1221h-254l-377 1485h229l287 -1247l274 1247h246z" />
    <glyph glyph-name="X" unicode="X" horiz-adv-x="1343" 
d="M0 0l551 764l-514 721h248l391 -549l395 549h236l-514 -713l550 -772h-245l-430 600l-432 -600h-236z" />
    <glyph glyph-name="Y" unicode="Y" horiz-adv-x="1277" 
d="M0 1485h229l406 -725l414 725h229l-545 -910v-575h-209v580z" />
    <glyph glyph-name="Z" unicode="Z" horiz-adv-x="1296" 
d="M1204 1485v-180l-872 -1125h905v-180h-1153v180l874 1125h-806v180h1052z" />
    <glyph glyph-name="bracketleft" unicode="[" horiz-adv-x="647" 
d="M166 1485h461v-158h-281v-1528h281v-157h-461v1843z" />
    <glyph glyph-name="backslash" unicode="\" horiz-adv-x="772" 
d="M186 1485l586 -1485h-188l-584 1485h186z" />
    <glyph glyph-name="bracketright" unicode="]" horiz-adv-x="647" 
d="M20 1485h461v-1843h-461v157h281v1528h-281v158z" />
    <glyph glyph-name="asciicircum" unicode="^" horiz-adv-x="903" 
d="M526 1485l420 -793h-201l-299 559l-292 -559h-199l412 793h159z" />
    <glyph glyph-name="underscore" unicode="_" horiz-adv-x="937" 
d="M872 -178h-806v176h806v-176z" />
    <glyph glyph-name="grave" unicode="`" horiz-adv-x="514" 
d="M311 1247l-266 238h238l186 -238h-158z" />
    <glyph glyph-name="a" unicode="a" horiz-adv-x="1144" 
d="M842 461v69q-109 -11 -188.5 -22.5t-151.5 -30.5t-116.5 -43t-70.5 -59t-26 -80q0 -79 57 -126.5t156 -47.5q55 0 102.5 10t92 35t76 63t50.5 97t19 135zM461 -27q-162 0 -270.5 85.5t-108.5 232.5q0 64 23 115.5t70.5 90t109 67t150 50t180 36.5t212.5 28v27
q0 268 -249 268q-116 0 -181 -57.5t-71 -161.5h-193q6 86 46 157.5t101.5 117t137.5 70.5t157 25q228 0 334.5 -110t104.5 -344l-2 -254q-3 -276 28 -416h-188q-12 81 -14 152q-53 -89 -143 -134t-234 -45z" />
    <glyph glyph-name="b" unicode="b" horiz-adv-x="1230" 
d="M326 547q0 -105 26.5 -186.5t72 -130t102 -73t120.5 -24.5q145 0 230.5 109.5t85.5 304.5t-85.5 304.5t-230.5 109.5q-64 0 -120.5 -24.5t-102 -73t-72 -130t-26.5 -186.5zM147 1485h187v-557q112 192 360 192q96 0 181 -39.5t149.5 -111.5t102.5 -181.5t38 -240.5
q0 -134 -38 -244t-102.5 -181.5t-149.5 -110t-181 -38.5q-248 0 -360 193v-166h-187v1485z" />
    <glyph glyph-name="c" unicode="c" horiz-adv-x="1140" 
d="M604 1120q97 0 181.5 -34t141 -89.5t92.5 -123.5t46 -140h-188q-20 99 -98.5 161t-186.5 62q-63 0 -119 -25t-101 -73.5t-71.5 -127.5t-26.5 -179q0 -198 93 -306t225 -108q113 0 192 64.5t101 156.5h192q-30 -161 -166.5 -273t-324.5 -112q-235 0 -374.5 160.5
t-139.5 415.5q0 164 64.5 293t186 203.5t281.5 74.5z" />
    <glyph glyph-name="d" unicode="d" horiz-adv-x="1236" 
d="M903 928v557h187v-1485h-187v166q-112 -193 -360 -193q-96 0 -181 38.5t-149.5 110t-102.5 181.5t-38 244q0 131 38 240.5t102.5 181.5t149.5 111.5t181 39.5q248 0 360 -192zM911 547q0 105 -26.5 186.5t-72 130t-102 73t-120.5 24.5q-145 0 -230.5 -109.5t-85.5 -304.5
t85.5 -304.5t230.5 -109.5q64 0 120.5 24.5t102 73t72 130t26.5 186.5z" />
    <glyph glyph-name="e" unicode="e" horiz-adv-x="1189" 
d="M1120 489h-848q2 -86 32.5 -155t79.5 -111t107.5 -64t120.5 -22q223 0 301 182h193q-39 -149 -170 -247.5t-324 -98.5q-169 0 -293 76.5t-185.5 205.5t-61.5 294q0 171 71 302t191.5 200t271.5 69q165 0 287 -85t180.5 -228t46.5 -318zM606 961q-63 0 -119 -18
t-102 -54.5t-75.5 -98t-35.5 -141.5h650q-2 59 -24.5 114.5t-61.5 100t-99.5 71t-132.5 26.5z" />
    <glyph glyph-name="f" unicode="f" horiz-adv-x="641" 
d="M195 1102v80q0 73 7 120t25 85t52 58t85 30t128 10h96v-156h-92q-73 0 -94 -25t-21 -112v-90h207v-150h-207v-952h-186v952h-154v150h154z" />
    <glyph glyph-name="g" unicode="g" horiz-adv-x="1222" 
d="M889 928v174h186v-955q0 -157 -26 -243t-78 -144q-60 -69 -159 -107t-222 -38q-191 0 -309 86.5t-144 251.5h199q19 -82 78 -128t178 -46q149 0 225 82q24 28 37 50t24 71.5t11 121.5v105q-111 -191 -350 -191q-92 0 -176 37t-149 105t-103.5 174t-38.5 235
q0 128 38.5 234t103.5 174t149 105.5t176 37.5q238 0 350 -192zM897 569q0 101 -25 178.5t-69 123t-98.5 68t-118.5 22.5q-140 0 -226 -103.5t-86 -288.5q0 -186 86 -289.5t226 -103.5q134 0 222.5 97.5t88.5 295.5z" />
    <glyph glyph-name="h" unicode="h" horiz-adv-x="1183" 
d="M334 1485v-549q111 184 356 184q363 0 363 -424v-696h-187v641q0 57 -4.5 99t-19 85.5t-40.5 70.5t-70.5 44.5t-106.5 17.5q-137 0 -214 -92t-77 -268v-598h-187v1485h187z" />
    <glyph glyph-name="i" unicode="i" horiz-adv-x="481" 
d="M147 1102h187v-1102h-187v1102zM147 1485h187v-225h-187v225z" />
    <glyph glyph-name="j" unicode="j" horiz-adv-x="481" 
d="M147 -59v1161h187v-1157q0 -90 -10.5 -144.5t-40 -92t-79 -52t-130.5 -14.5h-94v155h53q71 0 92.5 28t21.5 116zM147 1485h187v-225h-187v225z" />
    <glyph glyph-name="k" unicode="k" horiz-adv-x="1034" 
d="M147 1485h187v-879l444 496h230l-420 -457l477 -645h-227l-375 508l-129 -139v-369h-187v1485z" />
    <glyph glyph-name="l" unicode="l" horiz-adv-x="481" 
d="M334 1485v-1485h-187v1485h187z" />
    <glyph glyph-name="m" unicode="m" horiz-adv-x="1841" 
d="M334 598v-598h-187v1102h187v-166q111 184 332 184q240 0 317 -194q125 194 371 194q184 0 270 -112.5t86 -311.5v-696h-186v641q0 56 -5 99t-20 85.5t-40 70.5t-68.5 45t-102.5 17q-124 0 -195 -92.5t-71 -267.5v-598h-186v641q0 56 -5 99t-20 85.5t-40 70.5t-68.5 45
t-102.5 17q-124 0 -195 -92.5t-71 -267.5z" />
    <glyph glyph-name="n" unicode="n" horiz-adv-x="1183" 
d="M334 1102v-166q111 184 356 184q363 0 363 -424v-696h-187v641q0 57 -4.5 99t-19 85.5t-40.5 70.5t-70.5 44.5t-106.5 17.5q-137 0 -214 -92t-77 -268v-598h-187v1102h187z" />
    <glyph glyph-name="o" unicode="o" horiz-adv-x="1208" 
d="M274 547q0 -107 27 -188t74.5 -128.5t105 -70.5t123.5 -23q65 0 123.5 25t105 73.5t74 129t27.5 182.5q0 107 -27 188t-74.5 128t-105 70t-123.5 23q-67 0 -124 -22.5t-104.5 -68.5t-74.5 -127.5t-27 -190.5zM604 1120q79 0 153.5 -21t143 -66.5t120 -111t82 -162
t30.5 -212.5t-30.5 -212.5t-82 -162.5t-120 -111.5t-143 -66.5t-153.5 -21q-99 0 -191 34.5t-168.5 102t-122.5 180.5t-46 257q0 116 30.5 212.5t81.5 162t119.5 111t143 66.5t153.5 21z" />
    <glyph glyph-name="p" unicode="p" horiz-adv-x="1236" 
d="M147 1102h187v-174q112 192 360 192q96 0 181 -39.5t149.5 -111.5t102.5 -181.5t38 -240.5q0 -134 -38 -244t-102.5 -181.5t-149.5 -110t-181 -38.5q-248 0 -360 193v-524h-187v1460zM326 547q0 -105 26.5 -186.5t72 -130t102 -73t120.5 -24.5q145 0 230.5 109.5
t85.5 304.5t-85.5 304.5t-230.5 109.5q-64 0 -120.5 -24.5t-102 -73t-72 -130t-26.5 -186.5z" />
    <glyph glyph-name="q" unicode="q" horiz-adv-x="1236" 
d="M903 928v174h187v-1460h-187v524q-112 -193 -360 -193q-96 0 -181 38.5t-149.5 110t-102.5 181.5t-38 244q0 131 38 240.5t102.5 181.5t149.5 111.5t181 39.5q248 0 360 -192zM911 547q0 105 -26.5 186.5t-72 130t-102 73t-120.5 24.5q-145 0 -230.5 -109.5t-85.5 -304.5
t85.5 -304.5t230.5 -109.5q64 0 120.5 24.5t102 73t72 130t26.5 186.5z" />
    <glyph glyph-name="r" unicode="r" horiz-adv-x="727" 
d="M696 1106v-199q-52 8 -104 8q-132 0 -195 -79t-63 -258v-578h-187v1102h183v-193q41 93 121 143.5t190 55.5q32 0 55 -2z" />
    <glyph glyph-name="s" unicode="s" horiz-adv-x="1075" 
d="M973 780h-195q-43 183 -260 183q-93 0 -162 -35.5t-69 -104.5q0 -63 41.5 -97t126.5 -52l155 -31q65 -12 117 -28t102 -42.5t83.5 -61t54 -85t20.5 -111.5q0 -160 -126.5 -251t-321.5 -91q-105 0 -192 32.5t-145 87t-92.5 122t-43.5 141.5h196q49 -225 281 -225
q110 0 183 44t73 120q0 77 -59.5 117.5t-164.5 64.5l-163 33q-51 11 -91 24.5t-83.5 37.5t-72.5 55.5t-48 79.5t-19 108q0 95 59.5 165.5t159 106t222.5 35.5q179 0 293.5 -91.5t140.5 -250.5z" />
    <glyph glyph-name="t" unicode="t" horiz-adv-x="665" 
d="M201 1102v276h186v-276h209v-150h-209v-653q0 -90 19 -116.5t96 -26.5h94v-156h-135q-83 0 -130.5 10.5t-78 42t-41 83t-10.5 140.5v676h-174v150h174z" />
    <glyph glyph-name="u" unicode="u" horiz-adv-x="1163" 
d="M829 0v158q-112 -185 -346 -185q-93 0 -161.5 30.5t-110 87.5t-61 133t-19.5 173v705h186v-649q0 -57 4.5 -99t18.5 -85.5t38.5 -71t67.5 -45t103 -17.5q135 0 207.5 92t72.5 269v606h187v-1102h-187z" />
    <glyph glyph-name="v" unicode="v" horiz-adv-x="997" 
d="M207 1102l299 -844l299 844h192l-415 -1102h-166l-416 1102h207z" />
    <glyph glyph-name="w" unicode="w" horiz-adv-x="1474" 
d="M422 287l219 815h193l219 -815l211 815h200l-317 -1102h-170l-244 887l-235 -887h-170l-318 1102h201z" />
    <glyph glyph-name="x" unicode="x" horiz-adv-x="1064" 
d="M1012 1102l-375 -527l412 -575h-224l-299 420l-297 -420h-213l406 567l-381 535h223l268 -379l271 379h209z" />
    <glyph glyph-name="y" unicode="y" horiz-adv-x="954" 
d="M760 1102h194l-393 -1149q-22 -65 -39.5 -106.5t-41 -79.5t-49 -59t-62.5 -37.5t-82.5 -22.5t-108.5 -6h-96v155h76q43 0 67 2t52.5 11.5t45.5 29t34 53t32 84.5l8 23l-397 1102h207l280 -850z" />
    <glyph glyph-name="z" unicode="z" horiz-adv-x="999" 
d="M68 0v162l637 778h-596v162h813v-162l-635 -778h647v-162h-866z" />
    <glyph glyph-name="braceleft" unicode="{" horiz-adv-x="593" 
d="M573 -358h-96q-96 0 -153.5 14.5t-90.5 52t-44 91.5t-11 145v334q0 52 -5 86t-20.5 64.5t-47.5 45t-82 14.5v150q50 0 82 14.5t47.5 45t20.5 64.5t5 87v332q0 91 11 145t44 91.5t90.5 52t153.5 14.5h96v-158h-92q-72 0 -93 -27.5t-21 -115.5v-338q0 -134 -42 -195.5
t-130 -83.5v-6q88 -22 130 -83t42 -195v-340q0 -88 21 -116t93 -28h92v-157z" />
    <glyph glyph-name="bar" unicode="|" horiz-adv-x="522" 
d="M176 1485h170v-1669h-170v1669z" />
    <glyph glyph-name="braceright" unicode="}" horiz-adv-x="593" 
d="M20 -358v157h93q72 0 93 28t21 116v340q0 134 42 195t130 83v6q-88 22 -130 83.5t-42 195.5v338q0 88 -21 115.5t-93 27.5h-93v158h97q96 0 153.5 -14.5t90.5 -52t44 -91.5t11 -145v-332q0 -53 5 -87t20.5 -64.5t47.5 -45t82 -14.5v-150q-50 0 -82 -14.5t-47.5 -45
t-20.5 -64.5t-5 -86v-334q0 -91 -11 -145t-44 -91.5t-90.5 -52t-153.5 -14.5h-97z" />
    <glyph glyph-name="asciitilde" unicode="~" horiz-adv-x="1388" 
d="M926 586q57 0 96 37.5t45 103.5h174q-11 -137 -94.5 -220t-220.5 -83q-56 0 -123.5 21.5t-119.5 48t-113.5 48t-106.5 21.5q-59 0 -98 -36.5t-43 -102.5h-175q8 137 92.5 220t223.5 83q66 0 137 -22t121 -48.5t107 -48.5t98 -22z" />
    <glyph glyph-name="uni00A0" unicode="&#xa0;" horiz-adv-x="485" 
 />
    <glyph glyph-name="exclamdown" unicode="&#xa1;" horiz-adv-x="501" 
d="M350 68v-426h-198v426l41 600h116zM369 866h-236v236h236v-236z" />
    <glyph glyph-name="cent" unicode="&#xa2;" horiz-adv-x="1118" 
d="M530 1286h95v-166q93 -4 171.5 -39t130 -91t84 -121.5t42.5 -135.5h-189q-19 92 -81.5 151.5t-157.5 69.5v-815q99 10 163 71t84 148h193q-25 -151 -145.5 -258.5t-294.5 -124.5v-174h-95v174q-215 17 -336.5 174.5t-121.5 399.5q0 153 53 274.5t157.5 199t247.5 93.5
v170zM274 551q0 -181 70.5 -285t185.5 -125v809q-115 -20 -185.5 -121t-70.5 -278z" />
    <glyph glyph-name="sterling" unicode="&#xa3;" horiz-adv-x="1169" 
d="M610 1354q-51 0 -98.5 -11.5t-90.5 -36.5t-69 -71t-26 -107q0 -51 19 -111.5t35.5 -95.5t55.5 -110h395v-133h-335q28 -86 28 -152q0 -198 -217 -329l2 -4q76 26 140 26q54 0 171 -40t193 -40q112 0 246 56l55 -162q-46 -27 -127 -47.5t-158 -20.5q-78 0 -211.5 41
t-216.5 41q-69 0 -149.5 -21t-149.5 -61l-61 150q40 18 83 47t92 76t80.5 115t31.5 143q0 90 -37 182h-248v133h186q-36 74 -51.5 108t-33 97.5t-17.5 120.5q0 98 43 172.5t115 117t156 63.5t177 21q234 0 367.5 -131.5t128.5 -347.5h-192q-2 89 -27 153t-68.5 100t-97 52.5
t-119.5 16.5z" />
    <glyph glyph-name="currency" unicode="&#xa4;" horiz-adv-x="1302" 
d="M162 709q0 158 90 284l-141 144l100 100l139 -139q130 100 295 100q172 0 301 -104l146 143l100 -100l-148 -148q91 -132 91 -280q0 -153 -91 -281l148 -145l-100 -101l-146 144q-135 -101 -301 -101q-164 0 -293 99l-141 -142l-100 101l141 143q-90 126 -90 283z
M332 709q0 -141 88 -235.5t223 -94.5q142 0 235 95t93 235q0 144 -93 241t-235 97q-135 0 -223 -97t-88 -241z" />
    <glyph glyph-name="yen" unicode="&#xa5;" horiz-adv-x="1234" 
d="M1053 227h-351v-227h-188v227h-334v131h334v156h-334v131h283l-473 840h219l405 -768l414 768h217l-489 -840h297v-131h-351v-156h351v-131z" />
    <glyph glyph-name="brokenbar" unicode="&#xa6;" horiz-adv-x="464" 
d="M147 1485h170v-625h-170v625zM147 440h170v-624h-170v624z" />
    <glyph glyph-name="section" unicode="&#xa7;" horiz-adv-x="1187" 
d="M590 -223q101 0 161 38.5t60 110.5q0 65 -40 110.5t-157 110.5l-266 142q-132 72 -202 156.5t-70 199.5q0 103 75 181.5t191 117.5q-166 108 -166 279q0 71 34.5 127.5t91.5 90.5t127 52t146 18q181 0 294 -88t137 -239h-195q-16 88 -81 130t-163 42q-92 0 -146 -34
t-54 -91q0 -55 36 -96.5t129 -90.5l281 -151q151 -77 226 -157t75 -197q0 -109 -69 -196t-185 -136q71 -53 106 -111.5t35 -140.5q0 -157 -119.5 -245.5t-295.5 -88.5q-193 0 -313.5 101.5t-133.5 279.5h193q18 -110 79 -167.5t179 -57.5zM717 741l-228 121
q-93 -29 -161 -82t-68 -123q0 -62 37 -108.5t125 -93.5l280 -152l21 -12q205 90 205 215q0 70 -48 121.5t-163 113.5z" />
    <glyph glyph-name="dieresis" unicode="&#xa8;" horiz-adv-x="747" 
d="M45 1282v203h186v-203h-186zM514 1485h188v-203h-188v203z" />
    <glyph glyph-name="copyright" unicode="&#xa9;" horiz-adv-x="1689" 
d="M78 739q0 169 60.5 314t163.5 245t244.5 156.5t299.5 56.5t298.5 -56.5t243.5 -156.5t163.5 -245t60.5 -314q0 -222 -103 -398.5t-277.5 -272t-385.5 -95.5q-158 0 -299.5 56.5t-244.5 155.5t-163.5 243t-60.5 311zM229 739q0 -184 82.5 -328.5t222.5 -222t312 -77.5
q131 0 244.5 45.5t195 126.5t128 199t46.5 257q0 187 -80 332.5t-219.5 224t-314.5 78.5q-128 0 -241.5 -46t-196.5 -128t-131 -201.5t-48 -259.5zM844 465q74 0 129.5 36t77.5 117l155 -40q-35 -107 -127.5 -175.5t-234.5 -68.5q-184 0 -284.5 113t-100.5 313
q0 198 104 309t287 111q141 0 230 -71.5t120 -188.5l-153 -43q-20 84 -74.5 129t-128.5 45q-98 0 -157.5 -73.5t-59.5 -217.5t59.5 -219.5t157.5 -75.5z" />
    <glyph glyph-name="ordfeminine" unicode="&#xaa;" horiz-adv-x="706" 
d="M494 983q-27 -51 -85.5 -75.5t-121.5 -24.5q-107 0 -167.5 49.5t-60.5 130.5q0 59 32.5 101t94 65.5t128.5 35.5t159 19v27q0 119 -131 119q-48 0 -81.5 -27t-37.5 -80h-145q6 95 80.5 155t195.5 60q269 0 269 -264q-5 -118 -5 -182q4 -131 13 -195h-135q-2 39 -2 86z
M307 995q87 0 126.5 43t39.5 115v25q-154 -18 -206 -38.5t-52 -70.5q0 -34 27 -54t65 -20z" />
    <glyph glyph-name="guillemotleft" unicode="&#xab;" horiz-adv-x="1052" 
d="M346 90l-326 469l326 467h201l-307 -467l307 -469h-201zM807 90l-326 469l326 467h201l-308 -467l308 -469h-201z" />
    <glyph glyph-name="logicalnot" unicode="&#xac;" horiz-adv-x="1388" 
d="M999 705h-880v176h1069v-680h-189v504z" />
    <glyph glyph-name="uni00AD" unicode="&#xad;" horiz-adv-x="829" 
d="M739 473h-651v176h651v-176z" />
    <glyph glyph-name="registered" unicode="&#xae;" horiz-adv-x="1689" 
d="M78 739q0 169 60.5 314t163.5 245t244.5 156.5t299.5 56.5t298.5 -56.5t243.5 -156.5t163.5 -245t60.5 -314q0 -222 -103 -398.5t-277.5 -272t-385.5 -95.5q-158 0 -299.5 56.5t-244.5 155.5t-163.5 243t-60.5 311zM229 739q0 -184 82.5 -328.5t222.5 -222t312 -77.5
q131 0 244.5 45.5t195 126.5t128 199t46.5 257q0 187 -80 332.5t-219.5 224t-314.5 78.5q-128 0 -241.5 -46t-196.5 -128t-131 -201.5t-48 -259.5zM1036 360l-166 312h-36h-119v-312h-168v818h250q77 0 133 -6t105.5 -22.5t80.5 -45t48.5 -73.5t17.5 -107q0 -150 -148 -217
l189 -347h-187zM1014 922q0 69 -48.5 95.5t-142.5 26.5h-108v-243h119q95 0 137.5 30t42.5 91z" />
    <glyph glyph-name="macron" unicode="&#xaf;" horiz-adv-x="704" 
d="M659 1300h-614v154h614v-154z" />
    <glyph glyph-name="degree" unicode="&#xb0;" horiz-adv-x="690" 
d="M45 1210q0 126 87.5 213.5t211.5 87.5q127 0 215 -87.5t88 -213.5q0 -125 -88 -213t-215 -88q-123 0 -211 88.5t-88 212.5zM195 1210q0 -67 42 -114t107 -47q67 0 111.5 47t44.5 114q0 68 -44.5 115t-111.5 47q-65 0 -107 -46.5t-42 -115.5z" />
    <glyph glyph-name="plusminus" unicode="&#xb1;" horiz-adv-x="1388" 
d="M600 772v318h188v-318h441v-176h-441v-320h-188v320h-440v176h440zM1229 0h-1069v176h1069v-176z" />
    <glyph glyph-name="twosuperior" unicode="&#xb2;" horiz-adv-x="712" 
d="M362 1747q121 0 199 -59t78 -162q0 -119 -103.5 -239t-310.5 -261h432v-129h-612v121q232 183 335 293t103 205q0 59 -34 89.5t-93 30.5q-63 0 -104.5 -43t-40.5 -131h-150q-2 129 80 207t221 78z" />
    <glyph glyph-name="threesuperior" unicode="&#xb3;" horiz-adv-x="739" 
d="M365 995q71 0 116 37t45 101q0 75 -49 107t-145 32h-49v121h41q184 0 184 125q0 58 -40 88t-99 30q-72 0 -113.5 -41t-52.5 -116h-144q11 124 95 196t225 72q53 0 101.5 -13t89.5 -39t65 -70t24 -101q0 -60 -32 -109t-84 -76q66 -29 101.5 -83t35.5 -119
q0 -123 -91 -188.5t-227 -65.5q-138 0 -221.5 79.5t-91.5 198.5h144q12 -72 54.5 -119t117.5 -47z" />
    <glyph glyph-name="acute" unicode="&#xb4;" horiz-adv-x="514" 
d="M469 1485l-268 -238h-156l184 238h240z" />
    <glyph glyph-name="mu" unicode="&#xb5;" horiz-adv-x="1175" 
d="M305 -358h-184q22 113 22 323v1137h187v-647q0 -174 57 -246t180 -72q130 0 201.5 91t71.5 261v613h186v-1102h-186v152q-47 -79 -117 -129t-148 -50q-157 0 -245 123v-114q0 -212 -25 -340z" />
    <glyph glyph-name="mu" unicode="&#x3bc;" horiz-adv-x="1175" 
d="M305 -358h-184q22 113 22 323v1137h187v-647q0 -174 57 -246t180 -72q130 0 201.5 91t71.5 261v613h186v-1102h-186v152q-47 -79 -117 -129t-148 -50q-157 0 -245 123v-114q0 -212 -25 -340z" />
    <glyph glyph-name="paragraph" unicode="&#xb6;" horiz-adv-x="1067" 
d="M0 1100q0 183 125.5 284t368.5 101h426v-1667h-156v1523h-248v-1523h-156v919q-71 9 -133 34.5t-114 68.5t-82.5 110t-30.5 150z" />
    <glyph glyph-name="periodcentered" unicode="&#xb7;" horiz-adv-x="501" 
d="M369 434h-236v236h236v-236z" />
    <glyph glyph-name="cedilla" unicode="&#xb8;" horiz-adv-x="501" 
d="M45 -360l33 81q61 -28 119 -28q51 0 88 15.5t37 49.5q0 29 -26 45.5t-65 16.5q-46 0 -77 -19l-62 35l105 170h108l-65 -104q30 6 61 6q73 0 114.5 -37.5t41.5 -101.5q0 -75 -67.5 -121.5t-153.5 -46.5q-111 0 -191 39z" />
    <glyph glyph-name="onesuperior" unicode="&#xb9;" horiz-adv-x="475" 
d="M360 897h-151v631h-182v102q99 2 145.5 20.5t75.5 82.5h112v-836z" />
    <glyph glyph-name="ordmasculine" unicode="&#xba;" horiz-adv-x="727" 
d="M365 1001q71 0 112 52t41 153t-41 154t-112 53q-68 0 -110 -55t-42 -152q0 -100 41.5 -152.5t110.5 -52.5zM365 883q-61 0 -115 20t-97 58.5t-68.5 101.5t-25.5 143q0 158 89 242t217 84t216.5 -84t88.5 -242q0 -106 -44 -181t-111.5 -108.5t-149.5 -33.5z" />
    <glyph glyph-name="guillemotright" unicode="&#xbb;" horiz-adv-x="1052" 
d="M571 559l-325 -469h-201l309 469l-309 467h201zM1032 559l-325 -469h-201l309 469l-309 467h201z" />
    <glyph glyph-name="onequarter" unicode="&#xbc;" horiz-adv-x="1658" 
d="M360 649h-151v631h-182v102q99 2 145.5 20.5t75.5 82.5h112v-836zM272 0h-206l1024 1485h206zM1331 643l-250 -326h250v326zM1626 317v-124h-143v-193h-152v193h-411v118l413 525h150v-519h143z" />
    <glyph glyph-name="onehalf" unicode="&#xbd;" horiz-adv-x="1597" 
d="M360 649h-151v631h-182v102q99 2 145.5 20.5t75.5 82.5h112v-836zM272 0h-206l1024 1485h206zM1249 850q121 0 199 -59t78 -162q0 -119 -103.5 -239t-310.5 -261h432v-129h-612v121q233 184 335.5 293t102.5 204q0 59 -34.5 90t-92.5 31q-63 0 -104.5 -43t-40.5 -131
h-150q-2 129 80 207t221 78z" />
    <glyph glyph-name="threequarters" unicode="&#xbe;" horiz-adv-x="1923" 
d="M365 748q71 0 116 36.5t45 100.5q0 75 -49 107t-145 32h-49v121h41q184 0 184 125q0 58 -40 88.5t-99 30.5q-143 0 -166 -158h-144q11 124 95 196t225 72q53 0 101.5 -13t89.5 -39t65 -70t24 -101q0 -60 -31.5 -108.5t-84.5 -75.5q66 -28 101.5 -83t35.5 -120
q0 -123 -91 -188.5t-227 -65.5q-138 0 -221.5 79.5t-91.5 198.5h144q11 -72 54 -118.5t118 -46.5zM537 0h-207l1024 1485h207zM1595 643l-249 -326h249v326zM1890 317v-124h-143v-193h-152v193h-411v118l413 525h150v-519h143z" />
    <glyph glyph-name="questiondown" unicode="&#xbf;" horiz-adv-x="1021" 
d="M487 -387q-70 0 -135.5 13t-125 42t-103.5 70t-70 101.5t-26 133.5q0 57 17.5 109.5t39 88t65.5 80t68.5 64.5t77.5 62q11 8 43 31t43 32t32.5 30.5t30 37.5t16 41.5t7.5 54.5v64h190v-70q0 -35 -6.5 -66t-15 -55t-26.5 -48.5t-31.5 -40t-39.5 -37.5t-41 -32.5t-46 -32.5
t-45 -32q-31 -24 -40 -31.5t-35.5 -30t-36 -34.5t-27.5 -35.5t-25 -42.5t-13 -45.5t-6 -54.5q0 -95 75 -149t200 -54q64 0 116 18t84.5 46t55 65.5t32 73.5t11.5 73h186q0 -196 -140.5 -318t-355.5 -122zM676 866h-236v236h236v-236z" />
    <glyph glyph-name="Agrave" unicode="&#xc0;" horiz-adv-x="1351" 
d="M0 0l551 1485h242l559 -1485h-226l-116 322h-682l-115 -322h-213zM666 1274l-275 -774h553zM584 1583l-303 232h264l225 -232h-186z" />
    <glyph glyph-name="Aacute" unicode="&#xc1;" horiz-adv-x="1351" 
d="M0 0l551 1485h242l559 -1485h-226l-116 322h-682l-115 -322h-213zM666 1274l-275 -774h553zM1073 1815l-305 -232h-184l225 232h264z" />
    <glyph glyph-name="Acircumflex" unicode="&#xc2;" horiz-adv-x="1351" 
d="M0 0l551 1485h242l559 -1485h-226l-116 322h-682l-115 -322h-213zM666 1274l-275 -774h553zM764 1815l270 -232h-219l-139 115l-139 -115h-220l277 232h170z" />
    <glyph glyph-name="Atilde" unicode="&#xc3;" horiz-adv-x="1351" 
d="M0 0l551 1485h242l559 -1485h-226l-116 322h-682l-115 -322h-213zM666 1274l-275 -774h553zM811 1720q84 0 96 92h146q-22 -120 -85.5 -175.5t-152.5 -55.5q-53 0 -104.5 24t-95 48t-78.5 24q-84 0 -93 -90h-145q20 115 82.5 172.5t153.5 57.5q42 0 82.5 -15t67 -33.5
t61 -33.5t65.5 -15z" />
    <glyph glyph-name="Adieresis" unicode="&#xc4;" horiz-adv-x="1351" 
d="M0 0l551 1485h242l559 -1485h-226l-116 322h-682l-115 -322h-213zM666 1274l-275 -774h553zM348 1800h187v-203h-187v203zM817 1800h189v-203h-189v203z" />
    <glyph glyph-name="Aring" unicode="&#xc5;" horiz-adv-x="1351" 
d="M0 0l551 1485h242l559 -1485h-226l-116 322h-682l-115 -322h-213zM666 1274l-275 -774h553zM676 1915q79 0 132.5 -48.5t53.5 -125.5q0 -75 -53.5 -124.5t-132.5 -49.5q-78 0 -131 49.5t-53 124.5q0 76 53.5 125t130.5 49zM676 1829q-36 0 -62 -25t-26 -63
q0 -37 26 -61.5t62 -24.5t62 24.5t26 61.5q0 38 -26 63t-62 25z" />
    <glyph glyph-name="AE" unicode="&#xc6;" horiz-adv-x="2150" 
d="M1081 1485h1008v-180h-797v-451h750v-180h-750v-494h797v-180h-1008v317h-624l-228 -317h-229zM1081 1186l-493 -686h493v686z" />
    <glyph glyph-name="Ccedilla" unicode="&#xc7;" horiz-adv-x="1486" 
d="M1219 473h202q-48 -240 -221.5 -370t-421.5 -130q-157 0 -284.5 57t-212.5 159.5t-131 244.5t-46 311q0 228 85 401.5t242 269t364 95.5q234 0 401.5 -132.5t216.5 -366.5h-203q-34 145 -144.5 234t-281.5 89q-204 0 -335.5 -155.5t-131.5 -434.5q0 -277 131.5 -436
t342.5 -159q173 0 282 87.5t146 235.5zM557 -360l33 81q61 -28 119 -28q51 0 88 15.5t37 49.5q0 29 -26 45.5t-65 16.5q-46 0 -77 -19l-62 35l105 170h108l-65 -104q30 6 61 6q73 0 114.5 -37.5t41.5 -101.5q0 -75 -67.5 -121.5t-153.5 -46.5q-111 0 -191 39z" />
    <glyph glyph-name="Egrave" unicode="&#xc8;" horiz-adv-x="1255" 
d="M176 0v1485h1008v-180h-799v-451h752v-180h-752v-494h799v-180h-1008zM629 1583l-303 232h264l225 -232h-186z" />
    <glyph glyph-name="Eacute" unicode="&#xc9;" horiz-adv-x="1255" 
d="M176 0v1485h1008v-180h-799v-451h752v-180h-752v-494h799v-180h-1008zM1077 1815l-305 -232h-184l225 232h264z" />
    <glyph glyph-name="Ecircumflex" unicode="&#xca;" horiz-adv-x="1255" 
d="M176 0v1485h1008v-180h-799v-451h752v-180h-752v-494h799v-180h-1008zM782 1815l271 -232h-219l-140 115l-139 -115h-219l276 232h170z" />
    <glyph glyph-name="Edieresis" unicode="&#xcb;" horiz-adv-x="1255" 
d="M176 0v1485h1008v-180h-799v-451h752v-180h-752v-494h799v-180h-1008zM352 1800h187v-203h-187v203zM821 1800h189v-203h-189v203z" />
    <glyph glyph-name="Igrave" unicode="&#xcc;" horiz-adv-x="561" 
d="M385 1485v-1485h-209v1485h209zM190 1583l-303 232h265l225 -232h-187z" />
    <glyph glyph-name="Iacute" unicode="&#xcd;" horiz-adv-x="561" 
d="M385 1485v-1485h-209v1485h209zM678 1815l-305 -232h-185l226 232h264z" />
    <glyph glyph-name="Icircumflex" unicode="&#xce;" horiz-adv-x="561" 
d="M385 1485v-1485h-209v1485h209zM371 1815l270 -232h-219l-139 115l-140 -115h-219l277 232h170z" />
    <glyph glyph-name="Idieresis" unicode="&#xcf;" horiz-adv-x="561" 
d="M385 1485v-1485h-209v1485h209zM-45 1800h186v-203h-186v203zM424 1800h188v-203h-188v203z" />
    <glyph glyph-name="Eth" unicode="&#xd0;" horiz-adv-x="1492" 
d="M176 1485h406q146 0 265 -23t222 -76.5t173 -137.5t109.5 -212t39.5 -293q0 -166 -39.5 -294t-109.5 -212t-173 -138t-222 -76.5t-265 -22.5h-406v662h-131v184h131v639zM1178 743q0 105 -18 189.5t-47.5 143t-76 101.5t-95.5 68t-113.5 40t-122.5 19.5t-130 4.5h-190
v-463h326v-184h-326v-486h190q72 0 130 4.5t122.5 19.5t113.5 40t95.5 68t76 101.5t47.5 143t18 190.5z" />
    <glyph glyph-name="Ntilde" unicode="&#xd1;" horiz-adv-x="1546" 
d="M1370 0h-305l-680 1268v-1268h-209v1485h307l678 -1264v1264h209v-1485zM948 1720q84 0 96 92h146q-22 -120 -85.5 -175.5t-152.5 -55.5q-53 0 -104.5 24t-95 48t-78.5 24q-83 0 -92 -90h-146q20 115 82.5 172.5t153.5 57.5q42 0 82.5 -15t67 -33.5t61 -33.5t65.5 -15z
" />
    <glyph glyph-name="Ograve" unicode="&#xd2;" horiz-adv-x="1601" 
d="M317 743q0 -278 137 -435.5t347 -157.5t346.5 157.5t136.5 435.5t-136.5 435t-346.5 157t-347 -157t-137 -435zM1497 743q0 -224 -84 -398t-243 -273t-369 -99t-369.5 99t-243.5 273t-84 398t84 397.5t243.5 272t369.5 98.5t369 -98.5t243 -272t84 -397.5zM709 1583
l-303 232h264l225 -232h-186z" />
    <glyph glyph-name="Oacute" unicode="&#xd3;" horiz-adv-x="1601" 
d="M317 743q0 -278 137 -435.5t347 -157.5t346.5 157.5t136.5 435.5t-136.5 435t-346.5 157t-347 -157t-137 -435zM1497 743q0 -224 -84 -398t-243 -273t-369 -99t-369.5 99t-243.5 273t-84 398t84 397.5t243.5 272t369.5 98.5t369 -98.5t243 -272t84 -397.5zM1198 1815
l-305 -232h-184l225 232h264z" />
    <glyph glyph-name="Ocircumflex" unicode="&#xd4;" horiz-adv-x="1601" 
d="M317 743q0 -278 137 -435.5t347 -157.5t346.5 157.5t136.5 435.5t-136.5 435t-346.5 157t-347 -157t-137 -435zM1497 743q0 -224 -84 -398t-243 -273t-369 -99t-369.5 99t-243.5 273t-84 398t84 397.5t243.5 272t369.5 98.5t369 -98.5t243 -272t84 -397.5zM889 1815
l270 -232h-219l-139 115l-139 -115h-220l277 232h170z" />
    <glyph glyph-name="Otilde" unicode="&#xd5;" horiz-adv-x="1601" 
d="M317 743q0 -278 137 -435.5t347 -157.5t346.5 157.5t136.5 435.5t-136.5 435t-346.5 157t-347 -157t-137 -435zM1497 743q0 -224 -84 -398t-243 -273t-369 -99t-369.5 99t-243.5 273t-84 398t84 397.5t243.5 272t369.5 98.5t369 -98.5t243 -272t84 -397.5zM936 1720
q84 0 96 92h146q-22 -120 -85.5 -175.5t-152.5 -55.5q-53 0 -104.5 24t-95 48t-78.5 24q-84 0 -93 -90h-145q20 115 82 172.5t153 57.5q42 0 82.5 -15t67.5 -33.5t61.5 -33.5t65.5 -15z" />
    <glyph glyph-name="Odieresis" unicode="&#xd6;" horiz-adv-x="1601" 
d="M317 743q0 -278 137 -435.5t347 -157.5t346.5 157.5t136.5 435.5t-136.5 435t-346.5 157t-347 -157t-137 -435zM1497 743q0 -224 -84 -398t-243 -273t-369 -99t-369.5 99t-243.5 273t-84 398t84 397.5t243.5 272t369.5 98.5t369 -98.5t243 -272t84 -397.5zM473 1800h186
v-203h-186v203zM942 1800h188v-203h-188v203z" />
    <glyph glyph-name="multiply" unicode="&#xd7;" horiz-adv-x="1388" 
d="M1176 195l-132 -134l-356 355l-342 -340l-133 131l344 342l-344 346l133 131l342 -342l344 340l133 -131l-344 -344z" />
    <glyph glyph-name="Oslash" unicode="&#xd8;" horiz-adv-x="1599" 
d="M1497 743q0 -224 -84 -398t-243 -273t-369 -99q-274 0 -451 160l-137 -162l-82 74l141 166q-168 211 -168 532q0 224 84 397.5t243.5 272t369.5 98.5q264 0 448 -157l119 141l82 -72l-125 -147q172 -202 172 -533zM1284 743q0 222 -94 375l-713 -837q125 -131 324 -131
q210 0 346.5 157.5t136.5 435.5zM317 743q0 -219 91 -372l714 835q-132 129 -321 129q-210 0 -347 -157t-137 -435z" />
    <glyph glyph-name="Ugrave" unicode="&#xd9;" horiz-adv-x="1497" 
d="M154 1485h208v-903q0 -223 88.5 -325.5t294.5 -102.5q208 0 299 111.5t91 338.5v881h208v-864q0 -332 -140 -490t-458 -158q-157 0 -266.5 33.5t-183 108.5t-107.5 195t-34 294v881zM655 1583l-303 232h264l226 -232h-187z" />
    <glyph glyph-name="Uacute" unicode="&#xda;" horiz-adv-x="1497" 
d="M154 1485h208v-903q0 -223 88.5 -325.5t294.5 -102.5q208 0 299 111.5t91 338.5v881h208v-864q0 -332 -140 -490t-458 -158q-157 0 -266.5 33.5t-183 108.5t-107.5 195t-34 294v881zM1124 1815l-305 -232h-184l225 232h264z" />
    <glyph glyph-name="Ucircumflex" unicode="&#xdb;" horiz-adv-x="1497" 
d="M154 1485h208v-903q0 -223 88.5 -325.5t294.5 -102.5q208 0 299 111.5t91 338.5v881h208v-864q0 -332 -140 -490t-458 -158q-157 0 -266.5 33.5t-183 108.5t-107.5 195t-34 294v881zM836 1815l270 -232h-219l-139 115l-140 -115h-219l277 232h170z" />
    <glyph glyph-name="Udieresis" unicode="&#xdc;" horiz-adv-x="1497" 
d="M154 1485h208v-903q0 -223 88.5 -325.5t294.5 -102.5q208 0 299 111.5t91 338.5v881h208v-864q0 -332 -140 -490t-458 -158q-157 0 -266.5 33.5t-183 108.5t-107.5 195t-34 294v881zM420 1800h186v-203h-186v203zM889 1800h188v-203h-188v203z" />
    <glyph glyph-name="Yacute" unicode="&#xdd;" horiz-adv-x="1277" 
d="M0 1485h229l406 -725l414 725h229l-545 -910v-575h-209v580zM995 1815l-305 -232h-184l225 232h264z" />
    <glyph glyph-name="Thorn" unicode="&#xde;" horiz-adv-x="1269" 
d="M385 1227h223q114 0 203 -12.5t169 -44t132 -82.5t82.5 -132.5t30.5 -189.5t-30.5 -188.5t-82.5 -131.5t-132 -82.5t-169 -44t-203 -12.5h-223v-307h-209v1485h209v-258zM623 1042h-238v-550h238q73 0 126 5.5t105.5 22t85 46t52.5 80t20 120.5q0 71 -20 122t-52.5 80.5
t-85 46.5t-105 22t-126.5 5z" />
    <glyph glyph-name="germandbls" unicode="&#xdf;" horiz-adv-x="1296" 
d="M334 0h-187v1006q0 249 113 362q130 141 412 141q202 0 332.5 -96t130.5 -256q0 -231 -224 -321q142 -35 226 -132.5t84 -265.5q0 -101 -30.5 -181t-81.5 -132.5t-122 -87t-148.5 -49.5t-164.5 -15q-105 0 -223 23l41 176q95 -31 190 -31q68 0 126 15t107 47.5t77 92
t28 140.5q0 297 -416 297h-6v170h4q165 0 254.5 60.5t89.5 171.5q0 99 -76.5 160t-199.5 61q-199 0 -273 -101q-63 -76 -63 -249v-1006z" />
    <glyph glyph-name="agrave" unicode="&#xe0;" horiz-adv-x="1144" 
d="M842 461v69q-109 -11 -188.5 -22.5t-151.5 -30.5t-116.5 -43t-70.5 -59t-26 -80q0 -79 57 -126.5t156 -47.5q55 0 102.5 10t92 35t76 63t50.5 97t19 135zM461 -27q-162 0 -270.5 85.5t-108.5 232.5q0 64 23 115.5t70.5 90t109 67t150 50t180 36.5t212.5 28v27
q0 268 -249 268q-116 0 -181 -57.5t-71 -161.5h-193q6 86 46 157.5t101.5 117t137.5 70.5t157 25q228 0 334.5 -110t104.5 -344l-2 -254q-3 -276 28 -416h-188q-12 81 -14 152q-53 -89 -143 -134t-234 -45zM504 1247l-266 238h237l187 -238h-158z" />
    <glyph glyph-name="aacute" unicode="&#xe1;" horiz-adv-x="1144" 
d="M842 461v69q-109 -11 -188.5 -22.5t-151.5 -30.5t-116.5 -43t-70.5 -59t-26 -80q0 -79 57 -126.5t156 -47.5q55 0 102.5 10t92 35t76 63t50.5 97t19 135zM461 -27q-162 0 -270.5 85.5t-108.5 232.5q0 64 23 115.5t70.5 90t109 67t150 50t180 36.5t212.5 28v27
q0 268 -249 268q-116 0 -181 -57.5t-71 -161.5h-193q6 86 46 157.5t101.5 117t137.5 70.5t157 25q228 0 334.5 -110t104.5 -344l-2 -254q-3 -276 28 -416h-188q-12 81 -14 152q-53 -89 -143 -134t-234 -45zM907 1485l-268 -238h-156l185 238h239z" />
    <glyph glyph-name="acircumflex" unicode="&#xe2;" horiz-adv-x="1144" 
d="M842 461v69q-109 -11 -188.5 -22.5t-151.5 -30.5t-116.5 -43t-70.5 -59t-26 -80q0 -79 57 -126.5t156 -47.5q55 0 102.5 10t92 35t76 63t50.5 97t19 135zM461 -27q-162 0 -270.5 85.5t-108.5 232.5q0 64 23 115.5t70.5 90t109 67t150 50t180 36.5t212.5 28v27
q0 268 -249 268q-116 0 -181 -57.5t-71 -161.5h-193q6 86 46 157.5t101.5 117t137.5 70.5t157 25q228 0 334.5 -110t104.5 -344l-2 -254q-3 -276 28 -416h-188q-12 81 -14 152q-53 -89 -143 -134t-234 -45zM676 1485l264 -238h-197l-161 111l-162 -111h-197l271 238h182z
" />
    <glyph glyph-name="atilde" unicode="&#xe3;" horiz-adv-x="1144" 
d="M842 461v69q-109 -11 -188.5 -22.5t-151.5 -30.5t-116.5 -43t-70.5 -59t-26 -80q0 -79 57 -126.5t156 -47.5q55 0 102.5 10t92 35t76 63t50.5 97t19 135zM461 -27q-162 0 -270.5 85.5t-108.5 232.5q0 64 23 115.5t70.5 90t109 67t150 50t180 36.5t212.5 28v27
q0 268 -249 268q-116 0 -181 -57.5t-71 -161.5h-193q6 86 46 157.5t101.5 117t137.5 70.5t157 25q228 0 334.5 -110t104.5 -344l-2 -254q-3 -276 28 -416h-188q-12 81 -14 152q-53 -89 -143 -134t-234 -45zM696 1393q85 0 97 92h145q-22 -120 -85.5 -176t-152.5 -56
q-42 0 -84 15.5t-70 34t-62 34t-62 15.5q-83 0 -92 -90h-146q20 115 82.5 172t153.5 57q53 0 102 -24.5t92.5 -49t81.5 -24.5z" />
    <glyph glyph-name="adieresis" unicode="&#xe4;" horiz-adv-x="1144" 
d="M842 461v69q-109 -11 -188.5 -22.5t-151.5 -30.5t-116.5 -43t-70.5 -59t-26 -80q0 -79 57 -126.5t156 -47.5q55 0 102.5 10t92 35t76 63t50.5 97t19 135zM461 -27q-162 0 -270.5 85.5t-108.5 232.5q0 64 23 115.5t70.5 90t109 67t150 50t180 36.5t212.5 28v27
q0 268 -249 268q-116 0 -181 -57.5t-71 -161.5h-193q6 86 46 157.5t101.5 117t137.5 70.5t157 25q228 0 334.5 -110t104.5 -344l-2 -254q-3 -276 28 -416h-188q-12 81 -14 152q-53 -89 -143 -134t-234 -45zM233 1282v203h187v-203h-187zM702 1485h189v-203h-189v203z" />
    <glyph glyph-name="aring" unicode="&#xe5;" horiz-adv-x="1144" 
d="M842 461v69q-109 -11 -188.5 -22.5t-151.5 -30.5t-116.5 -43t-70.5 -59t-26 -80q0 -79 57 -126.5t156 -47.5q55 0 102.5 10t92 35t76 63t50.5 97t19 135zM461 -27q-162 0 -270.5 85.5t-108.5 232.5q0 64 23 115.5t70.5 90t109 67t150 50t180 36.5t212.5 28v27
q0 268 -249 268q-116 0 -181 -57.5t-71 -161.5h-193q6 86 46 157.5t101.5 117t137.5 70.5t157 25q228 0 334.5 -110t104.5 -344l-2 -254q-3 -276 28 -416h-188q-12 81 -14 152q-53 -89 -143 -134t-234 -45zM582 1577q79 0 132.5 -48.5t53.5 -125.5q0 -75 -53.5 -124.5
t-132.5 -49.5q-78 0 -131.5 49.5t-53.5 124.5q0 76 54 125t131 49zM582 1491q-36 0 -62 -25t-26 -63q0 -36 26 -61t62 -25t62 25t26 61q0 38 -26 63t-62 25z" />
    <glyph glyph-name="ae" unicode="&#xe6;" horiz-adv-x="1945" 
d="M461 -27q-162 0 -270.5 85.5t-108.5 232.5q0 64 23 115.5t70.5 90t109 67t150 50t180 36.5t212.5 28v27q0 268 -249 268q-116 0 -181 -57.5t-71 -161.5h-193q6 86 46 157.5t101.5 117t137.5 70.5t157 25q294 0 388 -190q148 186 399 186q165 0 287 -85t180.5 -228
t46.5 -318h-848q2 -86 32.5 -155t79.5 -111t107.5 -64t120.5 -22q223 0 301 182h193q-39 -149 -170 -247.5t-324 -98.5q-296 0 -440 230q-68 -118 -192 -174t-275 -56zM842 461v63v6q-109 -11 -188.5 -22.5t-151.5 -30.5t-116.5 -43t-70.5 -59t-26 -80q0 -79 57 -126.5
t156 -47.5q55 0 102.5 10t92 35t76 63t50.5 97t19 135zM1362 961q-63 0 -119 -18t-102 -54.5t-75.5 -98t-35.5 -141.5h649q-3 80 -39.5 150t-109.5 116t-168 46z" />
    <glyph glyph-name="ccedilla" unicode="&#xe7;" horiz-adv-x="1140" 
d="M604 1120q97 0 181.5 -34t141 -89.5t92.5 -123.5t46 -140h-188q-20 99 -98.5 161t-186.5 62q-63 0 -119 -25t-101 -73.5t-71.5 -127.5t-26.5 -179q0 -198 93 -306t225 -108q113 0 192 64.5t101 156.5h192q-30 -161 -166.5 -273t-324.5 -112q-235 0 -374.5 160.5
t-139.5 415.5q0 164 64.5 293t186 203.5t281.5 74.5zM350 -360l33 81q61 -28 119 -28q51 0 88 15.5t37 49.5q0 30 -25.5 46t-64.5 16q-47 0 -78 -19l-62 35l105 170h108l-65 -104q30 6 61 6q73 0 114.5 -37.5t41.5 -101.5q0 -75 -67.5 -121.5t-153.5 -46.5q-111 0 -191 39z
" />
    <glyph glyph-name="egrave" unicode="&#xe8;" horiz-adv-x="1189" 
d="M1120 489h-848q2 -86 32.5 -155t79.5 -111t107.5 -64t120.5 -22q223 0 301 182h193q-39 -149 -170 -247.5t-324 -98.5q-169 0 -293 76.5t-185.5 205.5t-61.5 294q0 171 71 302t191.5 200t271.5 69q165 0 287 -85t180.5 -228t46.5 -318zM606 961q-63 0 -119 -18
t-102 -54.5t-75.5 -98t-35.5 -141.5h650q-2 59 -24.5 114.5t-61.5 100t-99.5 71t-132.5 26.5zM512 1247l-266 238h237l187 -238h-158z" />
    <glyph glyph-name="eacute" unicode="&#xe9;" horiz-adv-x="1189" 
d="M1120 489h-848q2 -86 32.5 -155t79.5 -111t107.5 -64t120.5 -22q223 0 301 182h193q-39 -149 -170 -247.5t-324 -98.5q-169 0 -293 76.5t-185.5 205.5t-61.5 294q0 171 71 302t191.5 200t271.5 69q165 0 287 -85t180.5 -228t46.5 -318zM606 961q-63 0 -119 -18
t-102 -54.5t-75.5 -98t-35.5 -141.5h650q-2 59 -24.5 114.5t-61.5 100t-99.5 71t-132.5 26.5zM936 1485l-268 -238h-156l184 238h240z" />
    <glyph glyph-name="ecircumflex" unicode="&#xea;" horiz-adv-x="1189" 
d="M1120 489h-848q2 -86 32.5 -155t79.5 -111t107.5 -64t120.5 -22q223 0 301 182h193q-39 -149 -170 -247.5t-324 -98.5q-169 0 -293 76.5t-185.5 205.5t-61.5 294q0 171 71 302t191.5 200t271.5 69q165 0 287 -85t180.5 -228t46.5 -318zM606 961q-63 0 -119 -18
t-102 -54.5t-75.5 -98t-35.5 -141.5h650q-2 59 -24.5 114.5t-61.5 100t-99.5 71t-132.5 26.5zM684 1485l264 -238h-196l-162 111l-162 -111h-197l271 238h182z" />
    <glyph glyph-name="edieresis" unicode="&#xeb;" horiz-adv-x="1189" 
d="M1120 489h-848q2 -86 32.5 -155t79.5 -111t107.5 -64t120.5 -22q223 0 301 182h193q-39 -149 -170 -247.5t-324 -98.5q-169 0 -293 76.5t-185.5 205.5t-61.5 294q0 171 71 302t191.5 200t271.5 69q165 0 287 -85t180.5 -228t46.5 -318zM606 961q-63 0 -119 -18
t-102 -54.5t-75.5 -98t-35.5 -141.5h650q-2 59 -24.5 114.5t-61.5 100t-99.5 71t-132.5 26.5zM262 1282v203h187v-203h-187zM731 1485h189v-203h-189v203z" />
    <glyph glyph-name="igrave" unicode="&#xec;" horiz-adv-x="481" 
d="M147 1102h187v-1102h-187v1102zM164 1247l-266 238h237l187 -238h-158z" />
    <glyph glyph-name="iacute" unicode="&#xed;" horiz-adv-x="481" 
d="M147 1102h187v-1102h-187v1102zM586 1485l-269 -238h-155l184 238h240z" />
    <glyph glyph-name="icircumflex" unicode="&#xee;" horiz-adv-x="481" 
d="M147 1102h187v-1102h-187v1102zM336 1485l264 -238h-197l-161 111l-162 -111h-197l271 238h182z" />
    <glyph glyph-name="idieresis" unicode="&#xef;" horiz-adv-x="481" 
d="M147 1102h187v-1102h-187v1102zM-86 1282v203h186v-203h-186zM383 1485h188v-203h-188v203z" />
    <glyph glyph-name="eth" unicode="&#xf0;" horiz-adv-x="1173" 
d="M657 1444l144 88l94 -53l-156 -97q348 -287 348 -735q0 -329 -140 -501.5t-376 -172.5q-231 0 -365 155t-134 421q0 260 133.5 415.5t341.5 155.5q196 0 315 -162l2 3q-89 197 -280 327l-152 -92l-92 49l160 98q-55 32 -162 82l135 123q104 -51 184 -104zM573 133
q139 0 225.5 106.5t86.5 309.5q0 200 -88 306t-224 106q-145 0 -222 -111t-77 -301q0 -195 76.5 -305.5t222.5 -110.5z" />
    <glyph glyph-name="ntilde" unicode="&#xf1;" horiz-adv-x="1183" 
d="M334 1102v-166q111 184 356 184q363 0 363 -424v-696h-187v641q0 57 -4.5 99t-19 85.5t-40.5 70.5t-70.5 44.5t-106.5 17.5q-137 0 -214 -92t-77 -268v-598h-187v1102h187zM756 1393q84 0 96 92h145q-22 -121 -85.5 -176.5t-151.5 -55.5q-42 0 -84 15.5t-70 34t-62.5 34
t-62.5 15.5q-83 0 -92 -90h-145q20 115 82 172t153 57q42 0 82.5 -15.5t67.5 -33.5t61.5 -33.5t65.5 -15.5z" />
    <glyph glyph-name="ograve" unicode="&#xf2;" horiz-adv-x="1208" 
d="M274 547q0 -107 27 -188t74.5 -128.5t105 -70.5t123.5 -23q65 0 123.5 25t105 73.5t74 129t27.5 182.5q0 107 -27 188t-74.5 128t-105 70t-123.5 23q-67 0 -124 -22.5t-104.5 -68.5t-74.5 -127.5t-27 -190.5zM604 1120q79 0 153.5 -21t143 -66.5t120 -111t82 -162
t30.5 -212.5t-30.5 -212.5t-82 -162.5t-120 -111.5t-143 -66.5t-153.5 -21q-99 0 -191 34.5t-168.5 102t-122.5 180.5t-46 257q0 116 30.5 212.5t81.5 162t119.5 111t143 66.5t153.5 21zM520 1247l-266 238h238l186 -238h-158z" />
    <glyph glyph-name="oacute" unicode="&#xf3;" horiz-adv-x="1208" 
d="M274 547q0 -107 27 -188t74.5 -128.5t105 -70.5t123.5 -23q65 0 123.5 25t105 73.5t74 129t27.5 182.5q0 107 -27 188t-74.5 128t-105 70t-123.5 23q-67 0 -124 -22.5t-104.5 -68.5t-74.5 -127.5t-27 -190.5zM604 1120q79 0 153.5 -21t143 -66.5t120 -111t82 -162
t30.5 -212.5t-30.5 -212.5t-82 -162.5t-120 -111.5t-143 -66.5t-153.5 -21q-99 0 -191 34.5t-168.5 102t-122.5 180.5t-46 257q0 116 30.5 212.5t81.5 162t119.5 111t143 66.5t153.5 21zM944 1485l-268 -238h-156l185 238h239z" />
    <glyph glyph-name="ocircumflex" unicode="&#xf4;" horiz-adv-x="1208" 
d="M274 547q0 -107 27 -188t74.5 -128.5t105 -70.5t123.5 -23q65 0 123.5 25t105 73.5t74 129t27.5 182.5q0 107 -27 188t-74.5 128t-105 70t-123.5 23q-67 0 -124 -22.5t-104.5 -68.5t-74.5 -127.5t-27 -190.5zM604 1120q79 0 153.5 -21t143 -66.5t120 -111t82 -162
t30.5 -212.5t-30.5 -212.5t-82 -162.5t-120 -111.5t-143 -66.5t-153.5 -21q-99 0 -191 34.5t-168.5 102t-122.5 180.5t-46 257q0 116 30.5 212.5t81.5 162t119.5 111t143 66.5t153.5 21zM692 1485l264 -238h-196l-162 111l-162 -111h-196l270 238h182z" />
    <glyph glyph-name="otilde" unicode="&#xf5;" horiz-adv-x="1208" 
d="M274 547q0 -107 27 -188t74.5 -128.5t105 -70.5t123.5 -23q65 0 123.5 25t105 73.5t74 129t27.5 182.5q0 107 -27 188t-74.5 128t-105 70t-123.5 23q-67 0 -124 -22.5t-104.5 -68.5t-74.5 -127.5t-27 -190.5zM604 1120q79 0 153.5 -21t143 -66.5t120 -111t82 -162
t30.5 -212.5t-30.5 -212.5t-82 -162.5t-120 -111.5t-143 -66.5t-153.5 -21q-99 0 -191 34.5t-168.5 102t-122.5 180.5t-46 257q0 116 30.5 212.5t81.5 162t119.5 111t143 66.5t153.5 21zM733 1393q84 0 96 92h146q-22 -120 -85.5 -176t-152.5 -56q-42 0 -84 15.5t-70 34
t-62 34t-62 15.5q-83 0 -92 -90h-146q20 115 82.5 172t153.5 57q53 0 102 -24.5t92.5 -49t81.5 -24.5z" />
    <glyph glyph-name="odieresis" unicode="&#xf6;" horiz-adv-x="1208" 
d="M274 547q0 -107 27 -188t74.5 -128.5t105 -70.5t123.5 -23q65 0 123.5 25t105 73.5t74 129t27.5 182.5q0 107 -27 188t-74.5 128t-105 70t-123.5 23q-67 0 -124 -22.5t-104.5 -68.5t-74.5 -127.5t-27 -190.5zM604 1120q79 0 153.5 -21t143 -66.5t120 -111t82 -162
t30.5 -212.5t-30.5 -212.5t-82 -162.5t-120 -111.5t-143 -66.5t-153.5 -21q-99 0 -191 34.5t-168.5 102t-122.5 180.5t-46 257q0 116 30.5 212.5t81.5 162t119.5 111t143 66.5t153.5 21zM270 1282v203h187v-203h-187zM739 1485h189v-203h-189v203z" />
    <glyph glyph-name="divide" unicode="&#xf7;" horiz-adv-x="1388" 
d="M582 66v235h235v-235h-235zM582 778v236h235v-236h-235zM1229 440h-1069v176h1069v-176z" />
    <glyph glyph-name="oslash" unicode="&#xf8;" horiz-adv-x="1208" 
d="M604 1120q186 0 326 -108l78 88l84 -72l-82 -94q123 -153 123 -387q0 -116 -30.5 -212.5t-82 -162.5t-120 -111.5t-143 -66.5t-153.5 -21q-191 0 -334 113l-98 -113l-80 74l103 117q-119 148 -119 383q0 116 30.5 212.5t81.5 162t119.5 111t143 66.5t153.5 21zM934 547
q0 137 -51 241l-496 -569q91 -82 217 -82q65 0 123.5 25t105 73.5t74 129t27.5 182.5zM274 547q0 -145 48 -236l493 566q-85 79 -211 79q-67 0 -124 -22.5t-104.5 -68.5t-74.5 -127.5t-27 -190.5z" />
    <glyph glyph-name="ugrave" unicode="&#xf9;" horiz-adv-x="1163" 
d="M829 0v158q-112 -185 -346 -185q-93 0 -161.5 30.5t-110 87.5t-61 133t-19.5 173v705h186v-649q0 -57 4.5 -99t18.5 -85.5t38.5 -71t67.5 -45t103 -17.5q135 0 207.5 92t72.5 269v606h187v-1102h-187zM543 1247l-267 238h238l186 -238h-157z" />
    <glyph glyph-name="uacute" unicode="&#xfa;" horiz-adv-x="1163" 
d="M829 0v158q-112 -185 -346 -185q-93 0 -161.5 30.5t-110 87.5t-61 133t-19.5 173v705h186v-649q0 -57 4.5 -99t18.5 -85.5t38.5 -71t67.5 -45t103 -17.5q135 0 207.5 92t72.5 269v606h187v-1102h-187zM926 1485l-269 -238h-155l184 238h240z" />
    <glyph glyph-name="ucircumflex" unicode="&#xfb;" horiz-adv-x="1163" 
d="M829 0v158q-112 -185 -346 -185q-93 0 -161.5 30.5t-110 87.5t-61 133t-19.5 173v705h186v-649q0 -57 4.5 -99t18.5 -85.5t38.5 -71t67.5 -45t103 -17.5q135 0 207.5 92t72.5 269v606h187v-1102h-187zM674 1485l264 -238h-197l-161 111l-162 -111h-197l271 238h182z" />
    <glyph glyph-name="udieresis" unicode="&#xfc;" horiz-adv-x="1163" 
d="M829 0v158q-112 -185 -346 -185q-93 0 -161.5 30.5t-110 87.5t-61 133t-19.5 173v705h186v-649q0 -57 4.5 -99t18.5 -85.5t38.5 -71t67.5 -45t103 -17.5q135 0 207.5 92t72.5 269v606h187v-1102h-187zM252 1282v203h186v-203h-186zM721 1485h188v-203h-188v203z" />
    <glyph glyph-name="yacute" unicode="&#xfd;" horiz-adv-x="954" 
d="M760 1102h194l-393 -1149q-22 -65 -39.5 -106.5t-41 -79.5t-49 -59t-62.5 -37.5t-82.5 -22.5t-108.5 -6h-96v155h76q43 0 67 2t52.5 11.5t45.5 29t34 53t32 84.5l8 23l-397 1102h207l280 -850zM817 1485l-268 -238h-156l185 238h239z" />
    <glyph glyph-name="thorn" unicode="&#xfe;" horiz-adv-x="1230" 
d="M334 1485v-557q112 192 360 192q95 0 179.5 -39.5t148.5 -111.5t101.5 -181.5t37.5 -240.5q0 -134 -37.5 -244t-101.5 -181.5t-148.5 -110t-179.5 -38.5q-248 0 -360 193v-524h-187v1843h187zM326 547q0 -105 26.5 -186.5t72 -130t102 -73t120.5 -24.5q145 0 230.5 109.5
t85.5 304.5t-85.5 304.5t-230.5 109.5q-64 0 -120.5 -24.5t-102 -73t-72 -130t-26.5 -186.5z" />
    <glyph glyph-name="ydieresis" unicode="&#xff;" horiz-adv-x="954" 
d="M760 1102h194l-393 -1149q-22 -65 -39.5 -106.5t-41 -79.5t-49 -59t-62.5 -37.5t-82.5 -22.5t-108.5 -6h-96v155h76q43 0 67 2t52.5 11.5t45.5 29t34 53t32 84.5l8 23l-397 1102h207l280 -850zM150 1282v203h186v-203h-186zM618 1485h189v-203h-189v203z" />
    <glyph glyph-name="Amacron" unicode="&#x100;" horiz-adv-x="1351" 
d="M0 0l551 1485h242l559 -1485h-226l-116 322h-682l-115 -322h-213zM666 1274l-275 -774h553zM983 1620h-614v154h614v-154z" />
    <glyph glyph-name="amacron" unicode="&#x101;" horiz-adv-x="1144" 
d="M842 461v69q-109 -11 -188.5 -22.5t-151.5 -30.5t-116.5 -43t-70.5 -59t-26 -80q0 -79 57 -126.5t156 -47.5q55 0 102.5 10t92 35t76 63t50.5 97t19 135zM461 -27q-162 0 -270.5 85.5t-108.5 232.5q0 64 23 115.5t70.5 90t109 67t150 50t180 36.5t212.5 28v27
q0 268 -249 268q-116 0 -181 -57.5t-71 -161.5h-193q6 86 46 157.5t101.5 117t137.5 70.5t157 25q228 0 334.5 -110t104.5 -344l-2 -254q-3 -276 28 -416h-188q-12 81 -14 152q-53 -89 -143 -134t-234 -45zM889 1300h-615v154h615v-154z" />
    <glyph glyph-name="Abreve" unicode="&#x102;" horiz-adv-x="1351" 
d="M0 0l551 1485h242l559 -1485h-226l-116 322h-682l-115 -322h-213zM666 1274l-275 -774h553zM842 1815h157q-13 -112 -93.5 -178t-231.5 -66q-147 0 -226.5 66t-93.5 178h158q18 -119 164 -119q145 0 166 119z" />
    <glyph glyph-name="abreve" unicode="&#x103;" horiz-adv-x="1144" 
d="M842 461v69q-109 -11 -188.5 -22.5t-151.5 -30.5t-116.5 -43t-70.5 -59t-26 -80q0 -79 57 -126.5t156 -47.5q55 0 102.5 10t92 35t76 63t50.5 97t19 135zM461 -27q-162 0 -270.5 85.5t-108.5 232.5q0 64 23 115.5t70.5 90t109 67t150 50t180 36.5t212.5 28v27
q0 268 -249 268q-116 0 -181 -57.5t-71 -161.5h-193q6 86 46 157.5t101.5 117t137.5 70.5t157 25q228 0 334.5 -110t104.5 -344l-2 -254q-3 -276 28 -416h-188q-12 81 -14 152q-53 -89 -143 -134t-234 -45zM762 1485h145q-6 -50 -25.5 -91.5t-56 -78t-99 -57.5t-146.5 -21
q-81 0 -143 21t-99 57.5t-56.5 78.5t-23.5 91h145q7 -55 50.5 -90t128.5 -35t129 35t51 90z" />
    <glyph glyph-name="Aogonek" unicode="&#x104;" horiz-adv-x="1351" 
d="M0 0l551 1485h242l559 -1485q-88 -43 -134.5 -81.5t-46.5 -82.5q0 -47 27.5 -69.5t69.5 -22.5q44 0 84 18v-124q-58 -23 -123 -23q-43 0 -82 10.5t-72.5 32.5t-53.5 61t-20 91q0 58 31 101.5t94 88.5l-116 322h-682l-115 -322h-213zM666 1274l-275 -774h553z" />
    <glyph glyph-name="aogonek" unicode="&#x105;" horiz-adv-x="1144" 
d="M842 461v69q-109 -11 -188.5 -22.5t-151.5 -30.5t-116.5 -43t-70.5 -59t-26 -80q0 -79 57 -126.5t156 -47.5q55 0 102.5 10t92 35t76 63t50.5 97t19 135zM852 0q-12 81 -14 152q-53 -89 -143 -134t-234 -45q-162 0 -270.5 85.5t-108.5 232.5q0 64 23 115.5t70.5 90
t109 67t150 50t180 36.5t212.5 28v27q0 268 -249 268q-116 0 -181 -57.5t-71 -161.5h-193q6 86 46 157.5t101.5 117t137.5 70.5t157 25q228 0 334.5 -110t104.5 -344l-2 -254q-3 -276 28 -416q-198 -82 -198 -172q0 -82 112 -82q40 0 86 12v-125q-56 -18 -131 -18
q-35 0 -66.5 5t-63.5 18t-55 33.5t-37.5 54t-14.5 75.5q0 122 180 199z" />
    <glyph glyph-name="Cacute" unicode="&#x106;" horiz-adv-x="1486" 
d="M1219 473h202q-48 -240 -221.5 -370t-421.5 -130q-157 0 -284.5 57t-212.5 159.5t-131 244.5t-46 311q0 228 85 401.5t242 269t364 95.5q234 0 401.5 -132.5t216.5 -366.5h-203q-34 145 -144.5 234t-281.5 89q-204 0 -335.5 -155.5t-131.5 -434.5q0 -277 131.5 -436
t342.5 -159q173 0 282 87.5t146 235.5zM1159 1815l-305 -232h-184l225 232h264z" />
    <glyph glyph-name="cacute" unicode="&#x107;" horiz-adv-x="1140" 
d="M604 1120q97 0 181.5 -34t141 -89.5t92.5 -123.5t46 -140h-188q-20 99 -98.5 161t-186.5 62q-63 0 -119 -25t-101 -73.5t-71.5 -127.5t-26.5 -179q0 -198 93 -306t225 -108q113 0 192 64.5t101 156.5h192q-30 -161 -166.5 -273t-324.5 -112q-235 0 -374.5 160.5
t-139.5 415.5q0 164 64.5 293t186 203.5t281.5 74.5zM913 1485l-268 -238h-156l185 238h239z" />
    <glyph glyph-name="Ccircumflex" unicode="&#x108;" horiz-adv-x="1486" 
d="M1219 473h202q-48 -240 -221.5 -370t-421.5 -130q-157 0 -284.5 57t-212.5 159.5t-131 244.5t-46 311q0 228 85 401.5t242 269t364 95.5q234 0 401.5 -132.5t216.5 -366.5h-203q-34 145 -144.5 234t-281.5 89q-204 0 -335.5 -155.5t-131.5 -434.5q0 -277 131.5 -436
t342.5 -159q173 0 282 87.5t146 235.5zM881 1815l270 -232h-219l-139 115l-140 -115h-219l277 232h170z" />
    <glyph glyph-name="ccircumflex" unicode="&#x109;" horiz-adv-x="1140" 
d="M604 1120q97 0 181.5 -34t141 -89.5t92.5 -123.5t46 -140h-188q-20 99 -98.5 161t-186.5 62q-63 0 -119 -25t-101 -73.5t-71.5 -127.5t-26.5 -179q0 -198 93 -306t225 -108q113 0 192 64.5t101 156.5h192q-30 -161 -166.5 -273t-324.5 -112q-235 0 -374.5 160.5
t-139.5 415.5q0 164 64.5 293t186 203.5t281.5 74.5zM684 1485l264 -238h-196l-162 111l-162 -111h-197l271 238h182z" />
    <glyph glyph-name="Cdotaccent" unicode="&#x10a;" horiz-adv-x="1486" 
d="M1219 473h202q-48 -240 -221.5 -370t-421.5 -130q-157 0 -284.5 57t-212.5 159.5t-131 244.5t-46 311q0 228 85 401.5t242 269t364 95.5q234 0 401.5 -132.5t216.5 -366.5h-203q-34 145 -144.5 234t-281.5 89q-204 0 -335.5 -155.5t-131.5 -434.5q0 -277 131.5 -436
t342.5 -159q173 0 282 87.5t146 235.5zM702 1802h187v-203h-187v203z" />
    <glyph glyph-name="cdotaccent" unicode="&#x10b;" horiz-adv-x="1140" 
d="M604 1120q97 0 181.5 -34t141 -89.5t92.5 -123.5t46 -140h-188q-20 99 -98.5 161t-186.5 62q-63 0 -119 -25t-101 -73.5t-71.5 -127.5t-26.5 -179q0 -198 93 -306t225 -108q113 0 192 64.5t101 156.5h192q-30 -161 -166.5 -273t-324.5 -112q-235 0 -374.5 160.5
t-139.5 415.5q0 164 64.5 293t186 203.5t281.5 74.5zM496 1485h186v-203h-186v203z" />
    <glyph glyph-name="Ccaron" unicode="&#x10c;" horiz-adv-x="1486" 
d="M1219 473h202q-48 -240 -221.5 -370t-421.5 -130q-157 0 -284.5 57t-212.5 159.5t-131 244.5t-46 311q0 228 85 401.5t242 269t364 95.5q234 0 401.5 -132.5t216.5 -366.5h-203q-34 145 -144.5 234t-281.5 89q-204 0 -335.5 -155.5t-131.5 -434.5q0 -277 131.5 -436
t342.5 -159q173 0 282 87.5t146 235.5zM705 1583l-269 232h219l138 -115l141 115h219l-276 -232h-172z" />
    <glyph glyph-name="ccaron" unicode="&#x10d;" horiz-adv-x="1140" 
d="M604 1120q97 0 181.5 -34t141 -89.5t92.5 -123.5t46 -140h-188q-20 99 -98.5 161t-186.5 62q-63 0 -119 -25t-101 -73.5t-71.5 -127.5t-26.5 -179q0 -198 93 -306t225 -108q113 0 192 64.5t101 156.5h192q-30 -161 -166.5 -273t-324.5 -112q-235 0 -374.5 160.5
t-139.5 415.5q0 164 64.5 293t186 203.5t281.5 74.5zM496 1247l-265 238h197l160 -111l164 111h196l-272 -238h-180z" />
    <glyph glyph-name="Dcaron" unicode="&#x10e;" horiz-adv-x="1495" 
d="M1178 743q0 105 -18 189.5t-47.5 143t-76 101.5t-95.5 68t-113.5 40t-122.5 19.5t-130 4.5h-190v-1133h190q72 0 130 4.5t122.5 19.5t113.5 40t95.5 68t76 101.5t47.5 143t18 190.5zM176 1485h406q146 0 265 -23t222 -76.5t173 -137.5t109.5 -212t39.5 -293
q0 -166 -39.5 -294t-109.5 -212t-173 -138t-222 -76.5t-265 -22.5h-406v1485zM651 1583l-268 232h219l137 -115l142 115h219l-277 -232h-172z" />
    <glyph glyph-name="dcaron" unicode="&#x10f;" horiz-adv-x="1388" 
d="M1430 1485l-144 -348h-119l62 348h201zM903 928v557h187v-1485h-187v166q-112 -193 -360 -193q-96 0 -181 38.5t-149.5 110t-102.5 181.5t-38 244q0 131 38 240.5t102.5 181.5t149.5 111.5t181 39.5q248 0 360 -192zM911 547q0 105 -26.5 186.5t-72 130t-102 73
t-120.5 24.5q-145 0 -230.5 -109.5t-85.5 -304.5t85.5 -304.5t230.5 -109.5q64 0 120.5 24.5t102 73t72 130t26.5 186.5z" />
    <glyph glyph-name="Dcroat" unicode="&#x110;" horiz-adv-x="1492" 
d="M176 1485h406q146 0 265 -23t222 -76.5t173 -137.5t109.5 -212t39.5 -293q0 -166 -39.5 -294t-109.5 -212t-173 -138t-222 -76.5t-265 -22.5h-406v662h-131v184h131v639zM1178 743q0 105 -18 189.5t-47.5 143t-76 101.5t-95.5 68t-113.5 40t-122.5 19.5t-130 4.5h-190
v-463h326v-184h-326v-486h190q72 0 130 4.5t122.5 19.5t113.5 40t95.5 68t76 101.5t47.5 143t18 190.5z" />
    <glyph glyph-name="dcroat" unicode="&#x111;" horiz-adv-x="1236" 
d="M903 928v256h-258v153h258v148h187v-148h145v-153h-145v-1184h-187v166q-112 -193 -360 -193q-96 0 -181 38.5t-149.5 110t-102.5 181.5t-38 244q0 131 38 240.5t102.5 181.5t149.5 111.5t181 39.5q248 0 360 -192zM911 547q0 105 -26.5 186.5t-72 130t-102 73
t-120.5 24.5q-145 0 -230.5 -109.5t-85.5 -304.5t85.5 -304.5t230.5 -109.5q64 0 120.5 24.5t102 73t72 130t26.5 186.5z" />
    <glyph glyph-name="Emacron" unicode="&#x112;" horiz-adv-x="1255" 
d="M176 0v1485h1008v-180h-799v-451h752v-180h-752v-494h799v-180h-1008zM993 1620h-614v154h614v-154z" />
    <glyph glyph-name="emacron" unicode="&#x113;" horiz-adv-x="1189" 
d="M1120 489h-848q2 -86 32.5 -155t79.5 -111t107.5 -64t120.5 -22q223 0 301 182h193q-39 -149 -170 -247.5t-324 -98.5q-169 0 -293 76.5t-185.5 205.5t-61.5 294q0 171 71 302t191.5 200t271.5 69q165 0 287 -85t180.5 -228t46.5 -318zM606 961q-63 0 -119 -18
t-102 -54.5t-75.5 -98t-35.5 -141.5h650q-2 59 -24.5 114.5t-61.5 100t-99.5 71t-132.5 26.5zM897 1300h-614v154h614v-154z" />
    <glyph glyph-name="Ebreve" unicode="&#x114;" horiz-adv-x="1255" 
d="M176 0v1485h1008v-180h-799v-451h752v-180h-752v-494h799v-180h-1008zM846 1815h158q-13 -112 -94 -178t-232 -66q-147 0 -226.5 66t-93.5 178h158q18 -119 164 -119q145 0 166 119z" />
    <glyph glyph-name="ebreve" unicode="&#x115;" horiz-adv-x="1189" 
d="M1120 489h-848q2 -86 32.5 -155t79.5 -111t107.5 -64t120.5 -22q223 0 301 182h193q-39 -149 -170 -247.5t-324 -98.5q-169 0 -293 76.5t-185.5 205.5t-61.5 294q0 171 71 302t191.5 200t271.5 69q165 0 287 -85t180.5 -228t46.5 -318zM606 961q-63 0 -119 -18
t-102 -54.5t-75.5 -98t-35.5 -141.5h650q-2 59 -24.5 114.5t-61.5 100t-99.5 71t-132.5 26.5zM770 1485h145q-6 -50 -25.5 -91.5t-56 -78t-99 -57.5t-146.5 -21q-81 0 -143 21t-99 57.5t-56.5 78.5t-23.5 91h146q7 -55 50 -90t128 -35t129 35t51 90z" />
    <glyph glyph-name="Edotaccent" unicode="&#x116;" horiz-adv-x="1255" 
d="M176 0v1485h1008v-180h-799v-451h752v-180h-752v-494h799v-180h-1008zM588 1802h186v-203h-186v203z" />
    <glyph glyph-name="edotaccent" unicode="&#x117;" horiz-adv-x="1189" 
d="M1120 489h-848q2 -86 32.5 -155t79.5 -111t107.5 -64t120.5 -22q223 0 301 182h193q-39 -149 -170 -247.5t-324 -98.5q-169 0 -293 76.5t-185.5 205.5t-61.5 294q0 171 71 302t191.5 200t271.5 69q165 0 287 -85t180.5 -228t46.5 -318zM606 961q-63 0 -119 -18
t-102 -54.5t-75.5 -98t-35.5 -141.5h650q-2 59 -24.5 114.5t-61.5 100t-99.5 71t-132.5 26.5zM498 1485h186v-203h-186v203z" />
    <glyph glyph-name="Eogonek" unicode="&#x118;" horiz-adv-x="1255" 
d="M176 0v1485h1008v-180h-799v-451h752v-180h-752v-494h799v-180h-1008zM975 0h209q-180 -88 -180 -164q0 -47 27 -69.5t69 -22.5q44 0 84 18v-124q-58 -23 -123 -23q-59 0 -108 17.5t-84 63t-35 114.5q0 112 141 190z" />
    <glyph glyph-name="eogonek" unicode="&#x119;" horiz-adv-x="1189" 
d="M614 -27h-2q-169 0 -293 76.5t-185.5 205.5t-61.5 294q0 171 71 302t191.5 200t271.5 69q165 0 287 -85t180.5 -228t46.5 -318h-848q2 -86 32.5 -155t79.5 -111t107.5 -64t120.5 -22q223 0 301 182h193q-52 -194 -236 -288l4 2q-66 -41 -114.5 -99t-48.5 -96
q0 -92 112 -92q40 0 86 12v-125q-56 -18 -131 -18q-45 0 -84 9t-75 30t-57 61.5t-21 96.5q0 76 73 161zM606 961q-63 0 -119 -18t-102 -54.5t-75.5 -98t-35.5 -141.5h650q-2 59 -24.5 114.5t-61.5 100t-99.5 71t-132.5 26.5z" />
    <glyph glyph-name="Ecaron" unicode="&#x11a;" horiz-adv-x="1255" 
d="M176 0v1485h1008v-180h-799v-451h752v-180h-752v-494h799v-180h-1008zM610 1583l-268 232h219l137 -115l142 115h219l-277 -232h-172z" />
    <glyph glyph-name="ecaron" unicode="&#x11b;" horiz-adv-x="1189" 
d="M1120 489h-848q2 -86 32.5 -155t79.5 -111t107.5 -64t120.5 -22q223 0 301 182h193q-39 -149 -170 -247.5t-324 -98.5q-169 0 -293 76.5t-185.5 205.5t-61.5 294q0 171 71 302t191.5 200t271.5 69q165 0 287 -85t180.5 -228t46.5 -318zM606 961q-63 0 -119 -18
t-102 -54.5t-75.5 -98t-35.5 -141.5h650q-2 59 -24.5 114.5t-61.5 100t-99.5 71t-132.5 26.5zM496 1247l-265 238h197l160 -111l164 111h196l-272 -238h-180z" />
    <glyph glyph-name="Gcircumflex" unicode="&#x11c;" horiz-adv-x="1576" 
d="M795 1511q233 0 401 -122.5t213 -335.5h-203q-39 131 -144.5 206.5t-277.5 75.5q-204 0 -335.5 -155.5t-131.5 -434.5q0 -277 129.5 -436t337.5 -159q63 0 121.5 10.5t117.5 38.5t102.5 70.5t70.5 111.5t27 158v39h-394v180h590v-758h-164l-10 186q-133 -213 -469 -213
q-209 0 -362.5 99.5t-231.5 273t-78 399.5q0 228 85 401.5t242 269t364 95.5zM881 1815l270 -232h-219l-139 115l-140 -115h-219l277 232h170z" />
    <glyph glyph-name="gcircumflex" unicode="&#x11d;" horiz-adv-x="1222" 
d="M889 928v174h186v-955q0 -157 -26 -243t-78 -144q-60 -69 -159 -107t-222 -38q-191 0 -309 86.5t-144 251.5h199q19 -82 78 -128t178 -46q149 0 225 82q24 28 37 50t24 71.5t11 121.5v105q-111 -191 -350 -191q-92 0 -176 37t-149 105t-103.5 174t-38.5 235
q0 128 38.5 234t103.5 174t149 105.5t176 37.5q238 0 350 -192zM897 569q0 101 -25 178.5t-69 123t-98.5 68t-118.5 22.5q-140 0 -226 -103.5t-86 -288.5q0 -186 86 -289.5t226 -103.5q134 0 222.5 97.5t88.5 295.5zM684 1485l264 -238h-196l-162 111l-162 -111h-197
l271 238h182z" />
    <glyph glyph-name="Gbreve" unicode="&#x11e;" horiz-adv-x="1576" 
d="M795 1511q233 0 401 -122.5t213 -335.5h-203q-39 131 -144.5 206.5t-277.5 75.5q-204 0 -335.5 -155.5t-131.5 -434.5q0 -277 129.5 -436t337.5 -159q63 0 121.5 10.5t117.5 38.5t102.5 70.5t70.5 111.5t27 158v39h-394v180h590v-758h-164l-10 186q-133 -213 -469 -213
q-209 0 -362.5 99.5t-231.5 273t-78 399.5q0 228 85 401.5t242 269t364 95.5zM954 1815h158q-13 -112 -94 -178t-232 -66q-147 0 -226 66t-93 178h158q18 -119 163 -119t166 119z" />
    <glyph glyph-name="gbreve" unicode="&#x11f;" horiz-adv-x="1222" 
d="M889 928v174h186v-955q0 -157 -26 -243t-78 -144q-60 -69 -159 -107t-222 -38q-191 0 -309 86.5t-144 251.5h199q19 -82 78 -128t178 -46q149 0 225 82q24 28 37 50t24 71.5t11 121.5v105q-111 -191 -350 -191q-92 0 -176 37t-149 105t-103.5 174t-38.5 235
q0 128 38.5 234t103.5 174t149 105.5t176 37.5q238 0 350 -192zM897 569q0 101 -25 178.5t-69 123t-98.5 68t-118.5 22.5q-140 0 -226 -103.5t-86 -288.5q0 -186 86 -289.5t226 -103.5q134 0 222.5 97.5t88.5 295.5zM758 1485h145q-6 -50 -25.5 -91.5t-56.5 -78t-99.5 -57.5
t-146.5 -21q-81 0 -143 21t-98.5 57.5t-56 78.5t-23.5 91h145q7 -55 50.5 -90t128.5 -35t129 35t51 90z" />
    <glyph glyph-name="Gdotaccent" unicode="&#x120;" horiz-adv-x="1576" 
d="M795 1511q233 0 401 -122.5t213 -335.5h-203q-39 131 -144.5 206.5t-277.5 75.5q-204 0 -335.5 -155.5t-131.5 -434.5q0 -277 129.5 -436t337.5 -159q63 0 121.5 10.5t117.5 38.5t102.5 70.5t70.5 111.5t27 158v39h-394v180h590v-758h-164l-10 186q-133 -213 -469 -213
q-209 0 -362.5 99.5t-231.5 273t-78 399.5q0 228 85 401.5t242 269t364 95.5zM700 1802h187v-203h-187v203z" />
    <glyph glyph-name="gdotaccent" unicode="&#x121;" horiz-adv-x="1222" 
d="M889 928v174h186v-955q0 -157 -26 -243t-78 -144q-60 -69 -159 -107t-222 -38q-191 0 -309 86.5t-144 251.5h199q19 -82 78 -128t178 -46q149 0 225 82q24 28 37 50t24 71.5t11 121.5v105q-111 -191 -350 -191q-92 0 -176 37t-149 105t-103.5 174t-38.5 235
q0 128 38.5 234t103.5 174t149 105.5t176 37.5q238 0 350 -192zM897 569q0 101 -25 178.5t-69 123t-98.5 68t-118.5 22.5q-140 0 -226 -103.5t-86 -288.5q0 -186 86 -289.5t226 -103.5q134 0 222.5 97.5t88.5 295.5zM506 1485h186v-203h-186v203z" />
    <glyph glyph-name="uni0122" unicode="&#x122;" horiz-adv-x="1576" 
d="M795 1511q233 0 401 -122.5t213 -335.5h-203q-39 131 -144.5 206.5t-277.5 75.5q-204 0 -335.5 -155.5t-131.5 -434.5q0 -277 129.5 -436t337.5 -159q63 0 121.5 10.5t117.5 38.5t102.5 70.5t70.5 111.5t27 158v39h-394v180h590v-758h-164l-10 186q-133 -213 -469 -213
q-209 0 -362.5 99.5t-231.5 273t-78 399.5q0 228 85 401.5t242 269t364 95.5zM668 -256v182h194v-194l-90 -185h-110l79 197h-73z" />
    <glyph glyph-name="uni0123" unicode="&#x123;" horiz-adv-x="1222" 
d="M680 1413v-184h-195v196l90 183h111l-80 -195h74zM889 928v174h186v-955q0 -157 -26 -243t-78 -144q-60 -69 -159 -107t-222 -38q-191 0 -309 86.5t-144 251.5h199q19 -82 78 -128t178 -46q149 0 225 82q24 28 37 50t24 71.5t11 121.5v105q-111 -191 -350 -191
q-92 0 -176 37t-149 105t-103.5 174t-38.5 235q0 128 38.5 234t103.5 174t149 105.5t176 37.5q238 0 350 -192zM897 569q0 101 -25 178.5t-69 123t-98.5 68t-118.5 22.5q-140 0 -226 -103.5t-86 -288.5q0 -186 86 -289.5t226 -103.5q134 0 222.5 97.5t88.5 295.5z" />
    <glyph glyph-name="Hcircumflex" unicode="&#x124;" horiz-adv-x="1550" 
d="M1165 1485h209v-1485h-209v674h-780v-674h-209v1485h209v-631h780v631zM862 1815l271 -232h-220l-139 115l-139 -115h-219l276 232h170z" />
    </font>
</defs>
</svg>
